  0
SECTION
  2
HEADER
  9
$ACADVER
  1
AC1018
  9
$ACADMAINTVER
 70
    76
  9
$DWGCODEPAGE
  3
ANSI_1252
  9
$INSBASE
 10
0.0
 20
0.0
 30
0.0
  9
$EXTMIN
 10
-10.00639783617339
 20
-12.00452418415125
 30
-0.0000000000000053
  9
$EXTMAX
 10
410.0064129945074
 20
285.0045349032588
 30
0.0000000000000099
  9
$LIMMIN
 10
-4.499999999999886
 20
-4.5
  9
$LIMMAX
 10
404.4999999999999
 20
277.5000000000001
  9
$ORTHOMODE
 70
     1
  9
$REGENMODE
 70
     1
  9
$FILLMODE
 70
     1
  9
$QTEXTMODE
 70
     0
  9
$MIRRTEXT
 70
     1
  9
$LTSCALE
 40
1.0
  9
$ATTMODE
 70
     1
  9
$TEXTSIZE
 40
2.5
  9
$TRACEWID
 40
1.0
  9
$TEXTSTYLE
  7
Standard
  9
$CLAYER
  8
Körperlinie_s-w
  9
$CELTYPE
  6
ByLayer
  9
$CECOLOR
 62
   256
  9
$CELTSCALE
 40
1.0
  9
$DISPSILH
 70
     0
  9
$DIMSCALE
 40
1.0
  9
$DIMASZ
 40
3.5
  9
$DIMEXO
 40
0.5
  9
$DIMDLI
 40
4.0
  9
$DIMRND
 40
0.0
  9
$DIMDLE
 40
0.0
  9
$DIMEXE
 40
0.25
  9
$DIMTP
 40
0.3
  9
$DIMTM
 40
0.0
  9
$DIMTXT
 40
2.5
  9
$DIMCEN
 40
1.0
  9
$DIMTSZ
 40
0.0
  9
$DIMTOL
 70
     0
  9
$DIMLIM
 70
     0
  9
$DIMTIH
 70
     0
  9
$DIMTOH
 70
     0
  9
$DIMSE1
 70
     0
  9
$DIMSE2
 70
     0
  9
$DIMTAD
 70
     0
  9
$DIMZIN
 70
     1
  9
$DIMBLK
  1

  9
$DIMASO
 70
     1
  9
$DIMSHO
 70
     1
  9
$DIMPOST
  1

  9
$DIMAPOST
  1

  9
$DIMALT
 70
     0
  9
$DIMALTD
 70
     2
  9
$DIMALTF
 40
0.03937
  9
$DIMLFAC
 40
1.0
  9
$DIMTOFL
 70
     0
  9
$DIMTVP
 40
0.0
  9
$DIMTIX
 70
     0
  9
$DIMSOXD
 70
     0
  9
$DIMSAH
 70
     0
  9
$DIMBLK1
  1

  9
$DIMBLK2
  1

  9
$DIMSTYLE
  2
LAUER_STANDARD
  9
$DIMCLRD
 70
     3
  9
$DIMCLRE
 70
     6
  9
$DIMCLRT
 70
     5
  9
$DIMTFAC
 40
1.0
  9
$DIMGAP
 40
0.625
  9
$DIMJUST
 70
     0
  9
$DIMSD1
 70
     0
  9
$DIMSD2
 70
     0
  9
$DIMTOLJ
 70
     1
  9
$DIMTZIN
 70
     0
  9
$DIMALTZ
 70
     0
  9
$DIMALTTZ
 70
     0
  9
$DIMUPT
 70
     0
  9
$DIMDEC
 70
     1
  9
$DIMTDEC
 70
     1
  9
$DIMALTU
 70
     2
  9
$DIMALTTD
 70
     2
  9
$DIMTXSTY
  7
ISOCP
  9
$DIMAUNIT
 70
     0
  9
$DIMADEC
 70
     0
  9
$DIMALTRND
 40
0.0
  9
$DIMAZIN
 70
     2
  9
$DIMDSEP
 70
    46
  9
$DIMATFIT
 70
     3
  9
$DIMFRAC
 70
     0
  9
$DIMLDRBLK
  1

  9
$DIMLUNIT
 70
     2
  9
$DIMLWD
 70
    -2
  9
$DIMLWE
 70
    -2
  9
$DIMTMOVE
 70
     0
  9
$LUNITS
 70
     2
  9
$LUPREC
 70
     4
  9
$SKETCHINC
 40
1.0
  9
$FILLETRAD
 40
4.0
  9
$AUNITS
 70
     0
  9
$AUPREC
 70
     0
  9
$MENU
  1
.
  9
$ELEVATION
 40
0.0
  9
$PELEVATION
 40
0.0
  9
$THICKNESS
 40
0.0
  9
$LIMCHECK
 70
     0
  9
$CHAMFERA
 40
10.0
  9
$CHAMFERB
 40
10.0
  9
$CHAMFERC
 40
20.0
  9
$CHAMFERD
 40
0.0
  9
$SKPOLY
 70
     0
  9
$TDCREATE
 40
2456216.319483276
  9
$TDUCREATE
 40
2456216.277816609
  9
$TDUPDATE
 40
2456231.354543600
  9
$TDUUPDATE
 40
2456231.312876933
  9
$TDINDWG
 40
0.0567903935
  9
$TDUSRTIMER
 40
0.0567902083
  9
$USRTIMER
 70
     1
  9
$ANGBASE
 50
0.0
  9
$ANGDIR
 70
     0
  9
$PDMODE
 70
     0
  9
$PDSIZE
 40
0.0
  9
$PLINEWID
 40
0.0
  9
$SPLFRAME
 70
     0
  9
$SPLINETYPE
 70
     6
  9
$SPLINESEGS
 70
     8
  9
$HANDSEED
  5
73D3
  9
$SURFTAB1
 70
     6
  9
$SURFTAB2
 70
     6
  9
$SURFTYPE
 70
     6
  9
$SURFU
 70
     6
  9
$SURFV
 70
     6
  9
$UCSBASE
  2

  9
$UCSNAME
  2

  9
$UCSORG
 10
99.69711750381192
 20
98.77512410801353
 30
0.0
  9
$UCSXDIR
 10
1.0
 20
0.0
 30
0.0
  9
$UCSYDIR
 10
0.0
 20
1.0
 30
0.0
  9
$UCSORTHOREF
  2

  9
$UCSORTHOVIEW
 70
     0
  9
$UCSORGTOP
 10
0.0
 20
0.0
 30
0.0
  9
$UCSORGBOTTOM
 10
0.0
 20
0.0
 30
0.0
  9
$UCSORGLEFT
 10
0.0
 20
0.0
 30
0.0
  9
$UCSORGRIGHT
 10
0.0
 20
0.0
 30
0.0
  9
$UCSORGFRONT
 10
0.0
 20
0.0
 30
0.0
  9
$UCSORGBACK
 10
0.0
 20
0.0
 30
0.0
  9
$PUCSBASE
  2

  9
$PUCSNAME
  2

  9
$PUCSORG
 10
0.0
 20
0.0
 30
0.0
  9
$PUCSXDIR
 10
1.0
 20
0.0
 30
0.0
  9
$PUCSYDIR
 10
0.0
 20
1.0
 30
0.0
  9
$PUCSORTHOREF
  2

  9
$PUCSORTHOVIEW
 70
     0
  9
$PUCSORGTOP
 10
0.0
 20
0.0
 30
0.0
  9
$PUCSORGBOTTOM
 10
0.0
 20
0.0
 30
0.0
  9
$PUCSORGLEFT
 10
0.0
 20
0.0
 30
0.0
  9
$PUCSORGRIGHT
 10
0.0
 20
0.0
 30
0.0
  9
$PUCSORGFRONT
 10
0.0
 20
0.0
 30
0.0
  9
$PUCSORGBACK
 10
0.0
 20
0.0
 30
0.0
  9
$USERI1
 70
     0
  9
$USERI2
 70
     0
  9
$USERI3
 70
     0
  9
$USERI4
 70
     0
  9
$USERI5
 70
     0
  9
$USERR1
 40
0.0
  9
$USERR2
 40
0.0
  9
$USERR3
 40
0.0
  9
$USERR4
 40
0.0
  9
$USERR5
 40
0.0
  9
$WORLDVIEW
 70
     1
  9
$SHADEDGE
 70
     3
  9
$SHADEDIF
 70
    70
  9
$TILEMODE
 70
     1
  9
$MAXACTVP
 70
    64
  9
$PINSBASE
 10
0.0
 20
0.0
 30
0.0
  9
$PLIMCHECK
 70
     0
  9
$PEXTMIN
 10
19.61938247680663
 20
28.39085202217103
 30
0.0
  9
$PEXTMAX
 10
176.5744422912598
 20
255.5176681995392
 30
0.0
  9
$PLIMMIN
 10
-6.043083190917968
 20
-5.873736858367919
  9
$PLIMMAX
 10
204.0149154663086
 20
291.0522580146789
  9
$UNITMODE
 70
     0
  9
$VISRETAIN
 70
     1
  9
$PLINEGEN
 70
     0
  9
$PSLTSCALE
 70
     1
  9
$TREEDEPTH
 70
  3020
  9
$CMLSTYLE
  2
Standard
  9
$CMLJUST
 70
     0
  9
$CMLSCALE
 40
20.0
  9
$PROXYGRAPHICS
 70
     1
  9
$MEASUREMENT
 70
     1
  9
$CELWEIGHT
370
    -1
  9
$ENDCAPS
280
     0
  9
$JOINSTYLE
280
     0
  9
$LWDISPLAY
290
     0
  9
$INSUNITS
 70
     4
  9
$HYPERLINKBASE
  1

  9
$STYLESHEET
  1
aclt_Lauer.ctb
  9
$XEDIT
290
     1
  9
$CEPSNTYPE
380
     0
  9
$PSTYLEMODE
290
     1
  9
$FINGERPRINTGUID
  2
{9C02FE66-77F1-4591-8733-EA68229F766A}
  9
$VERSIONGUID
  2
{6AD55B06-789E-4AC6-86C2-CB07A71B6E82}
  9
$EXTNAMES
290
     1
  9
$PSVPSCALE
 40
0.0
  9
$OLESTARTUP
290
     0
  9
$SORTENTS
280
    96
  9
$INDEXCTL
280
     0
  9
$HIDETEXT
280
     0
  9
$XCLIPFRAME
290
     0
  9
$HALOGAP
280
     0
  9
$OBSCOLOR
 70
   257
  9
$OBSLTYPE
280
     0
  9
$INTERSECTIONDISPLAY
280
     0
  9
$INTERSECTIONCOLOR
 70
   257
  9
$DIMASSOC
280
     1
  9
$PROJECTNAME
  1

  0
ENDSEC
  0
SECTION
  2
CLASSES
  0
CLASS
  1
ACDBDICTIONARYWDFLT
  2
AcDbDictionaryWithDefault
  3
ObjectDBX Classes
 90
        0
 91
        1
280
     0
281
     0
  0
CLASS
  1
ACDBPLACEHOLDER
  2
AcDbPlaceHolder
  3
ObjectDBX Classes
 90
        0
 91
        1
280
     0
281
     0
  0
CLASS
  1
LAYOUT
  2
AcDbLayout
  3
ObjectDBX Classes
 90
        0
 91
        3
280
     0
281
     0
  0
CLASS
  1
DICTIONARYVAR
  2
AcDbDictionaryVar
  3
ObjectDBX Classes
 90
        0
 91
        3
280
     0
281
     0
  0
CLASS
  1
PLOTSETTINGS
  2
AcDbPlotSettings
  3
ObjectDBX Classes
 90
        0
 91
        1
280
     0
281
     0
  0
CLASS
  1
TABLESTYLE
  2
AcDbTableStyle
  3
ObjectDBX Classes
 90
     2047
 91
        2
280
     0
281
     0
  0
CLASS
  1
SORTENTSTABLE
  2
AcDbSortentsTable
  3
ObjectDBX Classes
 90
        0
 91
        1
280
     0
281
     0
  0
CLASS
  1
CELLSTYLEMAP
  2
AcDbCellStyleMap
  3
ObjectDBX Classes
 90
     1152
 91
        1
280
     1
281
     0
  0
CLASS
  1
ACAD_TABLE
  2
AcDbTable
  3
ObjectDBX Classes
 90
     1025
 91
        0
280
     0
281
     1
  0
CLASS
  1
DATATABLE
  2
AcDbDataTable
  3
ObjectDBX Classes
 90
        0
 91
        0
280
     0
281
     0
  0
ENDSEC
  0
SECTION
  2
TABLES
  0
TABLE
  2
VPORT
  5
8
330
0
100
AcDbSymbolTable
 70
     4
  0
VPORT
  5
73D2
330
8
100
AcDbSymbolTableRecord
100
AcDbViewportTableRecord
  2
*Active
 70
     0
 10
0.0
 20
0.0
 11
1.0
 21
1.0
 12
200.000007579167
 22
136.5000053595537
 13
0.0
 23
0.0
 14
0.5
 24
0.5
 15
4.0
 25
4.0
 16
0.0
 26
0.0
 36
1.0
 17
0.0
 27
0.0
 37
0.0
 40
298.8274818981492
 41
1.538304392236976
 42
50.0
 43
0.0
 44
0.0
 50
0.0
 51
0.0
 71
     0
 72
   100
 73
     1
 74
     3
 75
     0
 76
     1
 77
     0
 78
     0
281
     0
 65
     1
110
99.69711750381192
120
98.77512410801353
130
0.0
111
1.0
121
0.0
131
0.0
112
0.0
122
1.0
132
0.0
 79
     0
146
0.0
  0
ENDTAB
  0
TABLE
  2
LTYPE
  5
5
330
0
100
AcDbSymbolTable
 70
     5
  0
LTYPE
  5
14
330
5
100
AcDbSymbolTableRecord
100
AcDbLinetypeTableRecord
  2
ByBlock
 70
     0
  3

 72
    65
 73
     0
 40
0.0
  0
LTYPE
  5
15
330
5
100
AcDbSymbolTableRecord
100
AcDbLinetypeTableRecord
  2
ByLayer
 70
     0
  3

 72
    65
 73
     0
 40
0.0
  0
LTYPE
  5
16
330
5
100
AcDbSymbolTableRecord
100
AcDbLinetypeTableRecord
  2
Continuous
 70
     0
  3
Solid line
 72
    65
 73
     0
 40
0.0
  0
LTYPE
  5
1046
330
5
100
AcDbSymbolTableRecord
100
AcDbLinetypeTableRecord
  2
MITTE
 70
     0
  3
Mitte ____ _ ____ _ ____ _ ____ _ ____ _ ____
 72
    65
 73
     4
 40
50.8
 49
31.75
 74
     0
 49
-6.349999999999999
 74
     0
 49
6.349999999999999
 74
     0
 49
-6.349999999999999
 74
     0
  0
LTYPE
  5
1057
330
5
100
AcDbSymbolTableRecord
100
AcDbLinetypeTableRecord
  2
MITTE2
 70
     0
  3
Mitte (.5x) ___ _ ___ _ ___ _ ___ _ ___ _ ___
 72
    65
 73
     4
 40
28.575
 49
19.05
 74
     0
 49
-3.174999999999999
 74
     0
 49
3.174999999999999
 74
     0
 49
-3.174999999999999
 74
     0
  0
LTYPE
  5
119A
330
5
100
AcDbSymbolTableRecord
100
AcDbLinetypeTableRecord
  2
VERDECKT
 70
     0
  3
Verdeckt __ __ __ __ __ __ __ __ __ __ __ __ __
 72
    65
 73
     2
 40
9.524999999999998
 49
6.349999999999999
 74
     0
 49
-3.174999999999999
 74
     0
  0
LTYPE
  5
5FD8
330
5
100
AcDbSymbolTableRecord
100
AcDbLinetypeTableRecord
  2
CENTER
 70
     0
  3
____ _ ____ _ ____ _ ____ _ ____ _ ____ _ ____
 72
    65
 73
     4
 40
0.6
 49
0.375
 74
     0
 49
-0.075
 74
     0
 49
0.075
 74
     0
 49
-0.075
 74
     0
  0
ENDTAB
  0
TABLE
  2
LAYER
  5
2
102
{ACAD_XDICTIONARY
360
65D4
102
}
330
0
100
AcDbSymbolTable
 70
    16
  0
LAYER
  5
10
330
2
100
AcDbSymbolTableRecord
100
AcDbLayerTableRecord
  2
0
 70
     0
 62
     7
  6
Continuous
370
    -3
390
F
  0
LAYER
  5
D8B
330
2
100
AcDbSymbolTableRecord
100
AcDbLayerTableRecord
  2
Zeichnungsrahmen
 70
     0
 62
     7
  6
Continuous
370
    -3
390
F
  0
LAYER
  5
FA0
330
2
100
AcDbSymbolTableRecord
100
AcDbLayerTableRecord
  2
DEFPOINTS
 70
     0
 62
     7
  6
Continuous
290
     0
370
    -3
390
F
  0
LAYER
  5
106F
330
2
100
AcDbSymbolTableRecord
100
AcDbLayerTableRecord
  2
Körperlinie_s-w
 70
     0
 62
     7
  6
Continuous
370
    -3
390
F
  0
LAYER
  5
11A3
330
2
100
AcDbSymbolTableRecord
100
AcDbLayerTableRecord
  2
Änderung1_kein_Plot
 70
     0
 62
     7
  6
Continuous
290
     0
370
    -3
390
F
  0
LAYER
  5
135D
330
2
100
AcDbSymbolTableRecord
100
AcDbLayerTableRecord
  2
Änderung
 70
     0
 62
     7
  6
Continuous
370
    -3
390
F
  0
LAYER
  5
1485
330
2
100
AcDbSymbolTableRecord
100
AcDbLayerTableRecord
  2
FRAME 050
 70
     0
 62
     6
  6
Continuous
370
    -3
390
F
  0
LAYER
  5
1486
330
2
100
AcDbSymbolTableRecord
100
AcDbLayerTableRecord
  2
FRAME 070
 70
     0
 62
     7
  6
Continuous
370
    -3
390
F
  0
LAYER
  5
1487
330
2
100
AcDbSymbolTableRecord
100
AcDbLayerTableRecord
  2
FRAME 200
 70
     0
 62
     8
  6
Continuous
370
    -3
390
F
  0
LAYER
  5
2CEA
330
2
100
AcDbSymbolTableRecord
100
AcDbLayerTableRecord
  2
Text_Kopf_05
 70
     0
 62
   230
  6
Continuous
370
    -3
390
F
  0
LAYER
  5
2CEB
330
2
100
AcDbSymbolTableRecord
100
AcDbLayerTableRecord
  2
LINIE_KOPF_018
 70
     0
 62
   210
  6
Continuous
370
    -3
390
F
  0
LAYER
  5
2CEC
330
2
100
AcDbSymbolTableRecord
100
AcDbLayerTableRecord
  2
LINIE_KOPF_025
 70
     0
 62
    90
  6
Continuous
370
    -3
390
F
  0
LAYER
  5
2CED
330
2
100
AcDbSymbolTableRecord
100
AcDbLayerTableRecord
  2
Text_Kopf_025
 70
     0
 62
    90
  6
Continuous
370
    -3
390
F
  0
LAYER
  5
2CEE
330
2
100
AcDbSymbolTableRecord
100
AcDbLayerTableRecord
  2
LINIE_KOPF_05
 70
     0
 62
     7
  6
Continuous
370
    -3
390
F
  0
LAYER
  5
2CEF
330
2
100
AcDbSymbolTableRecord
100
AcDbLayerTableRecord
  2
Text_Kopf_035
 70
     0
 62
   170
  6
Continuous
370
    -3
390
F
  0
LAYER
  5
65D3
330
2
100
AcDbSymbolTableRecord
100
AcDbLayerTableRecord
  2
Zeichnungskopf
 70
     0
 62
     7
  6
Continuous
370
    -3
390
F
  0
ENDTAB
  0
TABLE
  2
STYLE
  5
3
330
0
100
AcDbSymbolTable
 70
    10
  0
STYLE
  5
11
330
3
100
AcDbSymbolTableRecord
100
AcDbTextStyleTableRecord
  2
Standard
 70
     0
 40
0.0
 41
1.0
 50
0.0
 71
     0
 42
2.5
  3
txt
  4

  0
STYLE
  5
B8F
330
3
100
AcDbSymbolTableRecord
100
AcDbTextStyleTableRecord
  2
ISOCP
 70
     0
 40
2.5
 41
1.0
 50
0.0
 71
     0
 42
2.5
  3
C:\CAD\ACADLT\isocp.shx
  4

  0
STYLE
  5
1528
330
3
100
AcDbSymbolTableRecord
100
AcDbTextStyleTableRecord
  2
Logo
 70
     0
 40
0.0
 41
0.85
 50
30.0
 71
     0
 42
2.5
  3
txt.shx
  4

  0
STYLE
  5
18F2
330
3
100
AcDbSymbolTableRecord
100
AcDbTextStyleTableRecord
  2

 70
     1
 40
0.0
 41
1.0
 50
0.0
 71
     0
 42
2.5
  3
ltypeshp.shx
  4

  0
STYLE
  5
1D9E
330
3
100
AcDbSymbolTableRecord
100
AcDbTextStyleTableRecord
  2
ISO Proportional
 70
     0
 40
0.0
 41
1.0
 50
0.0
 71
     0
 42
2.5
  3
isocp.shx
  4

  0
STYLE
  5
5FDC
330
3
100
AcDbSymbolTableRecord
100
AcDbTextStyleTableRecord
  2
TEXTSTYLE_2
 70
     0
 40
0.0
 41
0.8916666667000001
 50
0.0
 71
     0
 42
0.2
  3
txt
  4

  0
STYLE
  5
5FDD
330
3
100
AcDbSymbolTableRecord
100
AcDbTextStyleTableRecord
  2
TEXTSTYLE_3
 70
     0
 40
0.0
 41
0.8
 50
0.0
 71
     0
 42
0.2
  3
txt
  4

  0
STYLE
  5
5FDE
330
3
100
AcDbSymbolTableRecord
100
AcDbTextStyleTableRecord
  2
TEXTSTYLE_4
 70
     0
 40
0.0
 41
0.85
 50
0.0
 71
     0
 42
0.2
  3
gdt
  4

  0
STYLE
  5
669D
330
3
100
AcDbSymbolTableRecord
100
AcDbTextStyleTableRecord
  2
TEXTSTYLE_11
 70
     0
 40
0.0
 41
0.85
 50
0.0
 71
     0
 42
0.2
  3
gdt
  4

  0
ENDTAB
  0
TABLE
  2
VIEW
  5
6
330
0
100
AcDbSymbolTable
 70
     0
  0
ENDTAB
  0
TABLE
  2
UCS
  5
7
330
0
100
AcDbSymbolTable
 70
     0
  0
ENDTAB
  0
TABLE
  2
APPID
  5
9
330
0
100
AcDbSymbolTable
 70
     6
  0
APPID
  5
12
330
9
100
AcDbSymbolTableRecord
100
AcDbRegAppTableRecord
  2
ACAD
 70
     0
  0
APPID
  5
2D2C
330
9
100
AcDbSymbolTableRecord
100
AcDbRegAppTableRecord
  2
ACAD_DSTYLE_DIMEXT_LENGTH
 70
     0
  0
APPID
  5
2D2D
330
9
100
AcDbSymbolTableRecord
100
AcDbRegAppTableRecord
  2
ACAD_DSTYLE_DIMEXT_ENABLED
 70
     0
  0
APPID
  5
2D2E
330
9
100
AcDbSymbolTableRecord
100
AcDbRegAppTableRecord
  2
ACAD_DSTYLE_DIMJOGGED_JOGANGLE_SYMBOL
 70
     0
  0
APPID
  5
2D2F
330
9
100
AcDbSymbolTableRecord
100
AcDbRegAppTableRecord
  2
ACAD_DSTYLE_DIMARC_LENGTH_SYMBOL
 70
     0
  0
APPID
  5
5EF3
330
9
100
AcDbSymbolTableRecord
100
AcDbRegAppTableRecord
  2
ACAD_PSEXT
 70
     0
  0
ENDTAB
  0
TABLE
  2
DIMSTYLE
  5
A
330
0
100
AcDbSymbolTable
 70
    11
100
AcDbDimStyleTable
 71
     6
340
FA2
340
5FE0
340
F78
340
FD0
340
FA1
340
106E
  0
DIMSTYLE
105
F78
330
A
100
AcDbSymbolTableRecord
100
AcDbDimStyleTableRecord
  2
STANDARD
 70
     0
 47
0.2
 48
0.2
140
2.5
143
0.03937
147
0.625
178
     3
271
     1
272
     1
279
     2
340
B8F
  0
DIMSTYLE
105
FA1
330
A
100
AcDbSymbolTableRecord
100
AcDbDimStyleTableRecord
  2
STANDARD_groß
 70
     0
 41
14.0
 42
1.0
 43
8.0
 44
4.0
 47
1.0
 73
     0
 74
     0
140
8.0
141
0.0
143
0.03937
147
0.625
176
     3
177
     6
178
     5
271
     1
272
     1
288
     1
289
     1
340
11
  0
DIMSTYLE
105
FA2
102
{ACAD_REACTORS
330
6849
330
6879
330
6887
330
6861
330
68FA
330
691C
102
}
330
A
100
AcDbSymbolTableRecord
100
AcDbDimStyleTableRecord
  2
LAUER_STANDARD
 70
     0
 41
3.5
 42
0.5
 43
4.0
 44
0.25
 47
0.3
 73
     0
 74
     0
 78
     1
 79
     2
140
2.5
141
1.0
143
0.03937
147
0.625
176
     3
177
     6
178
     5
271
     1
272
     1
340
B8F
  0
DIMSTYLE
105
FD0
330
A
100
AcDbSymbolTableRecord
100
AcDbDimStyleTableRecord
  2
LAUER_STANDARD$3
 70
     0
 41
3.5
 42
0.5
 43
4.0
 44
0.25
 47
0.3
 78
     1
 79
     2
140
2.5
141
1.0
143
0.03937
147
0.625
176
     3
177
     6
178
     5
271
     1
272
     1
340
B8F
  0
DIMSTYLE
105
101E
330
A
100
AcDbSymbolTableRecord
100
AcDbDimStyleTableRecord
  2
LAUER_STANDARD$4
 70
     0
 41
3.5
 42
0.5
 43
4.0
 44
0.25
 47
0.3
 78
     1
 79
     2
140
2.5
141
1.0
143
0.03937
147
0.625
176
     3
177
     6
178
     5
271
     1
272
     1
340
B8F
  0
DIMSTYLE
105
106E
330
A
100
AcDbSymbolTableRecord
100
AcDbDimStyleTableRecord
  2
STANDARD_groß$4
 70
     0
 41
14.0
 42
1.0
 43
8.0
 44
4.0
 47
1.0
140
8.0
141
0.0
143
0.03937
147
0.625
176
     3
177
     6
178
     5
271
     1
272
     1
288
     1
289
     1
340
11
  0
DIMSTYLE
105
10E2
330
A
100
AcDbSymbolTableRecord
100
AcDbDimStyleTableRecord
  2
ISO-25
 70
     0
 41
2.5
 42
0.625
 43
3.75
 44
1.25
 73
     0
 74
     0
 77
     1
 78
     8
140
2.5
141
2.5
143
0.03937007874016
147
0.625
171
     3
172
     1
271
     2
272
     2
274
     3
278
    44
283
     0
284
     8
340
11
  0
DIMSTYLE
105
19BC
330
A
100
AcDbSymbolTableRecord
100
AcDbDimStyleTableRecord
  2
LAUER_STANDARD_1
 70
     0
 41
3.5
 42
0.5
 43
4.0
 44
0.25
 47
0.3
 73
     0
 78
     1
 79
     2
140
2.5
141
1.0
143
0.03937
147
0.625
176
     7
177
     7
178
     7
271
     1
272
     1
340
B8F
  0
DIMSTYLE
105
5FDF
330
A
100
AcDbSymbolTableRecord
100
AcDbDimStyleTableRecord
  2
DIMSTYLE_1
 70
     0
 41
3.5
 47
1.0
 48
1.0
 71
     1
 73
     0
 74
     0
 77
     1
 78
     8
140
3.5
271
     2
272
     2
284
     8
340
11
341
5F48
342
5F48
343
5F48
344
5F48
  0
DIMSTYLE
105
5FE0
330
A
100
AcDbSymbolTableRecord
100
AcDbDimStyleTableRecord
  2
DIMSTYLE_2
 70
     0
 41
3.5
 47
0.01
 48
0.01
 73
     0
 74
     0
 77
     1
 78
     8
140
3.5
271
     2
272
     2
284
     8
340
11
341
5F48
342
5F48
343
5F48
344
5F48
  0
ENDTAB
  0
TABLE
  2
BLOCK_RECORD
  5
1
330
0
100
AcDbSymbolTable
 70
    16
  0
BLOCK_RECORD
  5
1F
102
{ACAD_XDICTIONARY
360
73B7
102
}
330
1
100
AcDbSymbolTableRecord
100
AcDbBlockTableRecord
  2
*Model_Space
340
22
  0
BLOCK_RECORD
  5
23
330
1
100
AcDbSymbolTableRecord
100
AcDbBlockTableRecord
  2
*Paper_Space
340
26
  0
BLOCK_RECORD
  5
1B
330
1
100
AcDbSymbolTableRecord
100
AcDbBlockTableRecord
  2
*Paper_Space0
340
1E
  0
BLOCK_RECORD
  5
12F5
330
1
100
AcDbSymbolTableRecord
100
AcDbBlockTableRecord
  2
Aenderungspositionen1
340
0
310
2800000020000000200000000100080000000000000400000000000000000000000000000000000000000000000080000080000000808000800000008000800080800000C0C0C000C0DCC000F0CAA6000020400000206000002080000020A0000020C0000020E00000400000004020000040400000406000004080000040A0
310
000040C0000040E00000600000006020000060400000606000006080000060A0000060C0000060E00000800000008020000080400000806000008080000080A0000080C0000080E00000A0000000A0200000A0400000A0600000A0800000A0A00000A0C00000A0E00000C0000000C0200000C0400000C0600000C0800000C0
310
A00000C0C00000C0E00000E0000000E0200000E0400000E0600000E0800000E0A00000E0C00000E0E00040000000400020004000400040006000400080004000A0004000C0004000E00040200000402020004020400040206000402080004020A0004020C0004020E000404000004040200040404000404060004040800040
310
40A0004040C0004040E00040600000406020004060400040606000406080004060A0004060C0004060E00040800000408020004080400040806000408080004080A0004080C0004080E00040A0000040A0200040A0400040A0600040A0800040A0A00040A0C00040A0E00040C0000040C0200040C0400040C0600040C08000
310
40C0A00040C0C00040C0E00040E0000040E0200040E0400040E0600040E0800040E0A00040E0C00040E0E00080000000800020008000400080006000800080008000A0008000C0008000E00080200000802020008020400080206000802080008020A0008020C0008020E00080400000804020008040400080406000804080
310
008040A0008040C0008040E00080600000806020008060400080606000806080008060A0008060C0008060E00080800000808020008080400080806000808080008080A0008080C0008080E00080A0000080A0200080A0400080A0600080A0800080A0A00080A0C00080A0E00080C0000080C0200080C0400080C0600080C0
310
800080C0A00080C0C00080C0E00080E0000080E0200080E0400080E0600080E0800080E0A00080E0C00080E0E000C0000000C0002000C0004000C0006000C0008000C000A000C000C000C000E000C0200000C0202000C0204000C0206000C0208000C020A000C020C000C020E000C0400000C0402000C0404000C0406000C0
310
408000C040A000C040C000C040E000C0600000C0602000C0604000C0606000C0608000C060A000C060C000C060E000C0800000C0802000C0804000C0806000C0808000C080A000C080C000C080E000C0A00000C0A02000C0A04000C0A06000C0A08000C0A0A000C0A0C000C0A0E000C0C00000C0C02000C0C04000C0C06000
310
C0C08000C0C0A000F0FBFF00A4A0A000808080000000FF0000FF000000FFFF00FF000000FF00FF00FFFF0000FFFFFF00FFFFFFFFFFFFFFFFFFFFFFFFFFFFFFFFFFFFFFFFFFFFFFFFFFFFFFFFFFFFFFFFFFFFFFFFFFFFFFFFFFFFFFFFFFFFFFFFFFFFFFFFFFFFFFFFFFFFFFFFFFFFFFFFFFFFFFFFFFFFFFFFFFFFFFFFFFFFFF
310
FFFFFFFFFFFFFFFFFFFFFFFFFFFFFFFFFFFFFFFFFFFFFFFFFFFFFFFFFFFFFFFFFFFFFFFFFFFFFFFFFFFFFFFFFFFFFFFFFFFFFFFFFFFFFFFFFFFFFFFFFFFFFFFFFFFFFFFFFFFFFFFFFFFFFFFFFFFFFFFFFFFFFFFFFFFFFFFFFFFFFFFFFFFFFFFFFFFFFFFFFFFFFFFFFFFFFFFFFFFFFFFFFFFFFFFFFFFFFFFFFFFFFFFFFFFFFF
310
FFFFFFFFFFFFFFFFFFFFFFFFFFFFFFFFFFFFFFFFFFFFFFFFFFFFFFFFFFFFFFFFFFFFFFFFFFFFFFFFFFFFFFFFFFFFFFFFFFFFFFFFFFFFFFFFFFFFFFFFFFFFFFFFFFFFFFFFFFFFFFFFFFFFFFFFFFFFFFFFFFFFFFFFFFFFFFFFFFFFFFFFFFFFFFFFFFFFFFFFFFFFFFFFFFFFFFFFFFFFFFFFFFFFFFFFFFFFFFFFFFFFFFFFFFFFFF
310
FFFFFFFFFFFFFFFFFFFFFFFFFFFFFFFFFFFFFFFFFFFFFFFFFFFFFFFFFFFFFFFFFFFFFFFFFFFFFFFFFFFFFFFFFFFFFFFFFFFFFFFFFFFFFFFFFFFFFFFFFFFFFFFFFFFFFFFFFFFFFFFFFFFFFFFFFFFFFFFFFFFFFFFFFFFFFFFFFFFFFFFFFFFFFFFFFFFFFFFFFFFFFFFFFFFFFFFFFFFFFFFFFFFFFFFFFFFFFFFFFFFFFFFFFFFFFF
310
FFFFFFFFFFFFFFFFFFFFFFFFFFFFFFFFFFFFFFFFFF0000000000FFFFFF00000000000000FF00000000FFFFFFFF000000000000FFFF00000000FFFFFFFF00000000000000FF00000000FFFFFFFF000000000000FFFFFFFFFFFFFFFFFFFFFFFFFFFFFFFFFFFFFFFFFFFFFFFFFFFFFFFFFFFFFFFFFFFFFFFFFFFFFFFFFFFFFFFF
310
FFFFFFFFFFFFFFFFFFFFFFFFFFFFFFFFFFFFFFFFFFFFFFFFFFFFFFFFFFFFFFFFFFFFFFFFFFFFFFFFFFFFFFFFFFFFFFFFFFFFFFFFFFFFFFFFFFFFFFFFFFFFFFFFFFFFFFFFFFFFFFFFFFFFFFFFFFFFFFFFFFFFFFFFFFFFFFFFFFFFFFFFFFFFFFFFFFFFFFFFFFFFFFFFFFFFFFFFFFFFFFFFFFFFFFFFFFFFFFFFFFFFFFFFFFFFFF
310
FFFFFFFFFFFFFFFFFFFFFFFFFFFFFFFFFFFFFFFFFFFFFFFFFFFFFFFFFFFFFFFFFFFFFFFFFFFFFFFFFFFFFFFFFFFFFFFFFFFFFFFFFFFFFFFFFFFFFFFFFFFFFFFFFFFFFFFFFFFFFFFFFFFFFFFFFFFFFFFFFFFFFFFFFFFFFFFFFFFFFFFFFFFFFFFFFFFFFFFFFFFFFFFFFFFFFFFFFFFFFFFFFFFFFFFFFFFFFFFFFFFFFFFFFFFFFF
310
FFFFFFFFFFFFFFFFFFFFFFFFFFFFFFFFFFFFFFFFFFFFFFFFFFFFFFFFFFFFFFFFFFFFFFFFFFFFFFFFFFFFFFFFFFFFFFFFFFFFFFFFFFFFFFFFFFFFFFFFFFFFFFFFFFFFFFFFFFFFFFFFFFFFFFFFFFFFFFFFFFFFFFFFFFFFFFFFFFFFFFFFFFFFFFFFFFFFFFFFFFFFFFFFFFFFFFFFFFFFFFFFFFFFFFFFFFFFFFFFFFFFFFFFFFFFFF
310
FFFFFFFFFFFFFFFFFFFFFFFFFFFFFFFFFFFFFFFFFFFFFFFFFFFFFFFFFFFFFFFFFFFFFFFFFFFFFFFFFFFFFFFFFFFFFFFFFFFFFFFFFFFFFFFF
102
{BLKREFS
331
13A2
102
}
1001
ACAD
1000
DesignCenter Data
1002
{
1070
     1
1070
     4
1002
}
  0
BLOCK_RECORD
  5
12FC
330
1
100
AcDbSymbolTableRecord
100
AcDbBlockTableRecord
  2
Aenderungspositionen2
340
0
310
2800000020000000200000000100080000000000000400000000000000000000000000000000000000000000000080000080000000808000800000008000800080800000C0C0C000C0DCC000F0CAA6000020400000206000002080000020A0000020C0000020E00000400000004020000040400000406000004080000040A0
310
000040C0000040E00000600000006020000060400000606000006080000060A0000060C0000060E00000800000008020000080400000806000008080000080A0000080C0000080E00000A0000000A0200000A0400000A0600000A0800000A0A00000A0C00000A0E00000C0000000C0200000C0400000C0600000C0800000C0
310
A00000C0C00000C0E00000E0000000E0200000E0400000E0600000E0800000E0A00000E0C00000E0E00040000000400020004000400040006000400080004000A0004000C0004000E00040200000402020004020400040206000402080004020A0004020C0004020E000404000004040200040404000404060004040800040
310
40A0004040C0004040E00040600000406020004060400040606000406080004060A0004060C0004060E00040800000408020004080400040806000408080004080A0004080C0004080E00040A0000040A0200040A0400040A0600040A0800040A0A00040A0C00040A0E00040C0000040C0200040C0400040C0600040C08000
310
40C0A00040C0C00040C0E00040E0000040E0200040E0400040E0600040E0800040E0A00040E0C00040E0E00080000000800020008000400080006000800080008000A0008000C0008000E00080200000802020008020400080206000802080008020A0008020C0008020E00080400000804020008040400080406000804080
310
008040A0008040C0008040E00080600000806020008060400080606000806080008060A0008060C0008060E00080800000808020008080400080806000808080008080A0008080C0008080E00080A0000080A0200080A0400080A0600080A0800080A0A00080A0C00080A0E00080C0000080C0200080C0400080C0600080C0
310
800080C0A00080C0C00080C0E00080E0000080E0200080E0400080E0600080E0800080E0A00080E0C00080E0E000C0000000C0002000C0004000C0006000C0008000C000A000C000C000C000E000C0200000C0202000C0204000C0206000C0208000C020A000C020C000C020E000C0400000C0402000C0404000C0406000C0
310
408000C040A000C040C000C040E000C0600000C0602000C0604000C0606000C0608000C060A000C060C000C060E000C0800000C0802000C0804000C0806000C0808000C080A000C080C000C080E000C0A00000C0A02000C0A04000C0A06000C0A08000C0A0A000C0A0C000C0A0E000C0C00000C0C02000C0C04000C0C06000
310
C0C08000C0C0A000F0FBFF00A4A0A000808080000000FF0000FF000000FFFF00FF000000FF00FF00FFFF0000FFFFFF00FFFFFFFFFFFFFFFFFFFFFFFFFFFFFFFFFFFFFFFFFFFFFFFFFFFFFFFFFFFFFFFFFFFFFFFFFFFFFFFFFFFFFFFFFFFFFFFFFFFFFFFFFFFFFFFFFFFFFFFFFFFFFFFFFFFFFFFFFFFFFFFFFFFFFFFFFFFFFF
310
FFFFFFFFFFFFFFFFFFFFFFFFFFFFFFFFFFFFFFFFFFFFFFFFFFFFFFFFFFFFFFFFFFFFFFFFFFFFFFFFFFFFFFFFFFFFFFFFFFFFFFFFFFFFFFFFFFFFFFFFFFFFFFFFFFFFFFFFFFFFFFFFFFFFFFFFFFFFFFFFFFFFFFFFFFFFFFFFFFFFFFFFFFFFFFFFFFFFFFFFFFFFFFFFFFFFFFFFFFFFFFFFFFFFFFFFFFFFFFFFFFFFFFFFFFFFFF
310
FFFFFFFFFFFFFFFFFFFFFFFFFFFFFFFFFFFFFFFFFFFFFFFFFFFFFFFFFFFFFFFFFFFFFFFFFFFFFFFFFFFFFFFFFFFFFFFFFFFFFFFFFFFFFFFFFFFFFFFFFFFFFFFFFFFFFFFFFFFFFFFFFFFFFFFFFFFFFFFFFFFFFFFFFFFFFFFFFFFFFFFFFFFFFFFFFFFFFFFFFFFFFFFFFFFFFFFFFFFFFFFFFFFFFFFFFFFFFFFFFFFFFFFFFFFFFF
310
FFFFFFFFFFFFFFFFFFFFFFFFFFFFFFFFFFFFFFFFFFFFFFFFFFFFFFFFFFFFFFFFFFFFFFFFFFFFFFFFFFFFFFFFFFFFFFFFFFFFFFFFFFFFFFFFFFFFFFFFFFFFFFFFFFFFFFFFFFFFFFFFFFFFFFFFFFFFFFFFFFFFFFFFFFFFFFFFFFFFFFFFFFFFFFFFFFFFFFFFFFFFFFFFFFFFFFFFFFFFFFFFFFFFFFFFFFFFFFFFFFFFFFFFFFFFFF
310
FFFFFFFFFFFFFFFFFFFFFFFFFFFFFFFFFFFFFFFFFF0000000000FFFFFF00000000000000FF00000000FFFFFFFF000000000000FFFF0000000000FFFFFF00000000000000FF00000000FFFFFFFF000000000000FFFFFFFFFFFFFFFFFFFFFFFFFFFFFFFFFFFFFFFFFFFFFFFFFFFFFFFFFFFFFFFFFFFFFFFFFFFFFFFFFFFFFFFF
310
FFFFFFFFFFFFFFFFFFFFFFFFFFFFFFFFFFFFFFFFFFFFFFFFFFFFFFFFFFFFFFFFFFFFFFFFFFFFFFFFFFFFFFFFFFFFFFFFFFFFFFFFFFFFFFFFFFFFFFFFFFFFFFFFFFFFFFFFFFFFFFFFFFFFFFFFFFFFFFFFFFFFFFFFFFFFFFFFFFFFFFFFFFFFFFFFFFFFFFFFFFFFFFFFFFFFFFFFFFFFFFFFFFFFFFFFFFFFFFFFFFFFFFFFFFFFFF
310
FFFFFFFFFFFFFFFFFFFFFFFFFFFFFFFFFFFFFFFFFFFFFFFFFFFFFFFFFFFFFFFFFFFFFFFFFFFFFFFFFFFFFFFFFFFFFFFFFFFFFFFFFFFFFFFFFFFFFFFFFFFFFFFFFFFFFFFFFFFFFFFFFFFFFFFFFFFFFFFFFFFFFFFFFFFFFFFFFFFFFFFFFFFFFFFFFFFFFFFFFFFFFFFFFFFFFFFFFFFFFFFFFFFFFFFFFFFFFFFFFFFFFFFFFFFFFF
310
FFFFFFFFFFFFFFFFFFFFFFFFFFFFFFFFFFFFFFFFFFFFFFFFFFFFFFFFFFFFFFFFFFFFFFFFFFFFFFFFFFFFFFFFFFFFFFFFFFFFFFFFFFFFFFFFFFFFFFFFFFFFFFFFFFFFFFFFFFFFFFFFFFFFFFFFFFFFFFFFFFFFFFFFFFFFFFFFFFFFFFFFFFFFFFFFFFFFFFFFFFFFFFFFFFFFFFFFFFFFFFFFFFFFFFFFFFFFFFFFFFFFFFFFFFFFFF
310
FFFFFFFFFFFFFFFFFFFFFFFFFFFFFFFFFFFFFFFFFFFFFFFFFFFFFFFFFFFFFFFFFFFFFFFFFFFFFFFFFFFFFFFFFFFFFFFFFFFFFFFFFFFFFFFF
102
{BLKREFS
331
13AE
102
}
1001
ACAD
1000
DesignCenter Data
1002
{
1070
     1
1070
     4
1002
}
  0
BLOCK_RECORD
  5
1303
330
1
100
AcDbSymbolTableRecord
100
AcDbBlockTableRecord
  2
Aenderungspositionen3
340
0
310
2800000020000000200000000100080000000000000400000000000000000000000000000000000000000000000080000080000000808000800000008000800080800000C0C0C000C0DCC000F0CAA6000020400000206000002080000020A0000020C0000020E00000400000004020000040400000406000004080000040A0
310
000040C0000040E00000600000006020000060400000606000006080000060A0000060C0000060E00000800000008020000080400000806000008080000080A0000080C0000080E00000A0000000A0200000A0400000A0600000A0800000A0A00000A0C00000A0E00000C0000000C0200000C0400000C0600000C0800000C0
310
A00000C0C00000C0E00000E0000000E0200000E0400000E0600000E0800000E0A00000E0C00000E0E00040000000400020004000400040006000400080004000A0004000C0004000E00040200000402020004020400040206000402080004020A0004020C0004020E000404000004040200040404000404060004040800040
310
40A0004040C0004040E00040600000406020004060400040606000406080004060A0004060C0004060E00040800000408020004080400040806000408080004080A0004080C0004080E00040A0000040A0200040A0400040A0600040A0800040A0A00040A0C00040A0E00040C0000040C0200040C0400040C0600040C08000
310
40C0A00040C0C00040C0E00040E0000040E0200040E0400040E0600040E0800040E0A00040E0C00040E0E00080000000800020008000400080006000800080008000A0008000C0008000E00080200000802020008020400080206000802080008020A0008020C0008020E00080400000804020008040400080406000804080
310
008040A0008040C0008040E00080600000806020008060400080606000806080008060A0008060C0008060E00080800000808020008080400080806000808080008080A0008080C0008080E00080A0000080A0200080A0400080A0600080A0800080A0A00080A0C00080A0E00080C0000080C0200080C0400080C0600080C0
310
800080C0A00080C0C00080C0E00080E0000080E0200080E0400080E0600080E0800080E0A00080E0C00080E0E000C0000000C0002000C0004000C0006000C0008000C000A000C000C000C000E000C0200000C0202000C0204000C0206000C0208000C020A000C020C000C020E000C0400000C0402000C0404000C0406000C0
310
408000C040A000C040C000C040E000C0600000C0602000C0604000C0606000C0608000C060A000C060C000C060E000C0800000C0802000C0804000C0806000C0808000C080A000C080C000C080E000C0A00000C0A02000C0A04000C0A06000C0A08000C0A0A000C0A0C000C0A0E000C0C00000C0C02000C0C04000C0C06000
310
C0C08000C0C0A000F0FBFF00A4A0A000808080000000FF0000FF000000FFFF00FF000000FF00FF00FFFF0000FFFFFF00FFFFFFFFFFFFFFFFFFFFFFFFFFFFFFFFFFFFFFFFFFFFFFFFFFFFFFFFFFFFFFFFFFFFFFFFFFFFFFFFFFFFFFFFFFFFFFFFFFFFFFFFFFFFFFFFFFFFFFFFFFFFFFFFFFFFFFFFFFFFFFFFFFFFFFFFFFFFFF
310
FFFFFFFFFFFFFFFFFFFFFFFFFFFFFFFFFFFFFFFFFFFFFFFFFFFFFFFFFFFFFFFFFFFFFFFFFFFFFFFFFFFFFFFFFFFFFFFFFFFFFFFFFFFFFFFFFFFFFFFFFFFFFFFFFFFFFFFFFFFFFFFFFFFFFFFFFFFFFFFFFFFFFFFFFFFFFFFFFFFFFFFFFFFFFFFFFFFFFFFFFFFFFFFFFFFFFFFFFFFFFFFFFFFFFFFFFFFFFFFFFFFFFFFFFFFFFF
310
FFFFFFFFFFFFFFFFFFFFFFFFFFFFFFFFFFFFFFFFFFFFFFFFFFFFFFFFFFFFFFFFFFFFFFFFFFFFFFFFFFFFFFFFFFFFFFFFFFFFFFFFFFFFFFFFFFFFFFFFFFFFFFFFFFFFFFFFFFFFFFFFFFFFFFFFFFFFFFFFFFFFFFFFFFFFFFFFFFFFFFFFFFFFFFFFFFFFFFFFFFFFFFFFFFFFFFFFFFFFFFFFFFFFFFFFFFFFFFFFFFFFFFFFFFFFFF
310
FFFFFFFFFFFFFFFFFFFFFFFFFFFFFFFFFFFFFFFFFFFFFFFFFFFFFFFFFFFFFFFFFFFFFFFFFFFFFFFFFFFFFFFFFFFFFFFFFFFFFFFFFFFFFFFFFFFFFFFFFFFFFFFFFFFFFFFFFFFFFFFFFFFFFFFFFFFFFFFFFFFFFFFFFFFFFFFFFFFFFFFFFFFFFFFFFFFFFFFFFFFFFFFFFFFFFFFFFFFFFFFFFFFFFFFFFFFFFFFFFFFFFFFFFFFFFF
310
FFFFFFFFFFFFFFFFFFFFFFFFFFFFFFFFFFFFFFFFFF0000000000FFFFFF00000000000000FF00000000FFFFFFFF000000000000FFFF0000000000FFFFFF00000000000000FF00000000FFFFFFFF000000000000FFFFFFFFFFFFFFFFFFFFFFFFFFFFFFFFFFFFFFFFFFFFFFFFFFFFFFFFFFFFFFFFFFFFFFFFFFFFFFFFFFFFFFFF
310
FFFFFFFFFFFFFFFFFFFFFFFFFFFFFFFFFFFFFFFFFFFFFFFFFFFFFFFFFFFFFFFFFFFFFFFFFFFFFFFFFFFFFFFFFFFFFFFFFFFFFFFFFFFFFFFFFFFFFFFFFFFFFFFFFFFFFFFFFFFFFFFFFFFFFFFFFFFFFFFFFFFFFFFFFFFFFFFFFFFFFFFFFFFFFFFFFFFFFFFFFFFFFFFFFFFFFFFFFFFFFFFFFFFFFFFFFFFFFFFFFFFFFFFFFFFFFF
310
FFFFFFFFFFFFFFFFFFFFFFFFFFFFFFFFFFFFFFFFFFFFFFFFFFFFFFFFFFFFFFFFFFFFFFFFFFFFFFFFFFFFFFFFFFFFFFFFFFFFFFFFFFFFFFFFFFFFFFFFFFFFFFFFFFFFFFFFFFFFFFFFFFFFFFFFFFFFFFFFFFFFFFFFFFFFFFFFFFFFFFFFFFFFFFFFFFFFFFFFFFFFFFFFFFFFFFFFFFFFFFFFFFFFFFFFFFFFFFFFFFFFFFFFFFFFFF
310
FFFFFFFFFFFFFFFFFFFFFFFFFFFFFFFFFFFFFFFFFFFFFFFFFFFFFFFFFFFFFFFFFFFFFFFFFFFFFFFFFFFFFFFFFFFFFFFFFFFFFFFFFFFFFFFFFFFFFFFFFFFFFFFFFFFFFFFFFFFFFFFFFFFFFFFFFFFFFFFFFFFFFFFFFFFFFFFFFFFFFFFFFFFFFFFFFFFFFFFFFFFFFFFFFFFFFFFFFFFFFFFFFFFFFFFFFFFFFFFFFFFFFFFFFFFFFF
310
FFFFFFFFFFFFFFFFFFFFFFFFFFFFFFFFFFFFFFFFFFFFFFFFFFFFFFFFFFFFFFFFFFFFFFFFFFFFFFFFFFFFFFFFFFFFFFFFFFFFFFFFFFFFFFFF
102
{BLKREFS
331
13A8
102
}
1001
ACAD
1000
DesignCenter Data
1002
{
1070
     1
1070
     4
1002
}
  0
BLOCK_RECORD
  5
1DB4
330
1
100
AcDbSymbolTableRecord
100
AcDbBlockTableRecord
  2
ISO A3 Rahmen
340
0
310
2800000020000000200000000100080000000000000400000000000000000000000000000000000000000000000080000080000000808000800000008000800080800000C0C0C000C0DCC000F0CAA6000020400000206000002080000020A0000020C0000020E00000400000004020000040400000406000004080000040A0
310
000040C0000040E00000600000006020000060400000606000006080000060A0000060C0000060E00000800000008020000080400000806000008080000080A0000080C0000080E00000A0000000A0200000A0400000A0600000A0800000A0A00000A0C00000A0E00000C0000000C0200000C0400000C0600000C0800000C0
310
A00000C0C00000C0E00000E0000000E0200000E0400000E0600000E0800000E0A00000E0C00000E0E00040000000400020004000400040006000400080004000A0004000C0004000E00040200000402020004020400040206000402080004020A0004020C0004020E000404000004040200040404000404060004040800040
310
40A0004040C0004040E00040600000406020004060400040606000406080004060A0004060C0004060E00040800000408020004080400040806000408080004080A0004080C0004080E00040A0000040A0200040A0400040A0600040A0800040A0A00040A0C00040A0E00040C0000040C0200040C0400040C0600040C08000
310
40C0A00040C0C00040C0E00040E0000040E0200040E0400040E0600040E0800040E0A00040E0C00040E0E00080000000800020008000400080006000800080008000A0008000C0008000E00080200000802020008020400080206000802080008020A0008020C0008020E00080400000804020008040400080406000804080
310
008040A0008040C0008040E00080600000806020008060400080606000806080008060A0008060C0008060E00080800000808020008080400080806000808080008080A0008080C0008080E00080A0000080A0200080A0400080A0600080A0800080A0A00080A0C00080A0E00080C0000080C0200080C0400080C0600080C0
310
800080C0A00080C0C00080C0E00080E0000080E0200080E0400080E0600080E0800080E0A00080E0C00080E0E000C0000000C0002000C0004000C0006000C0008000C000A000C000C000C000E000C0200000C0202000C0204000C0206000C0208000C020A000C020C000C020E000C0400000C0402000C0404000C0406000C0
310
408000C040A000C040C000C040E000C0600000C0602000C0604000C0606000C0608000C060A000C060C000C060E000C0800000C0802000C0804000C0806000C0808000C080A000C080C000C080E000C0A00000C0A02000C0A04000C0A06000C0A08000C0A0A000C0A0C000C0A0E000C0C00000C0C02000C0C04000C0C06000
310
C0C08000C0C0A000F0FBFF00A4A0A000808080000000FF0000FF000000FFFF00FF000000FF00FF00FFFF0000FFFFFF00FFFFFFFFFFFFFFFFFFFFFFFFFFFFFFFFFFFFFFFFFFFFFFFFFFFFFFFFFFFFFFFFFFFFFFFFFFFFFFFFFFFFFFFFFFFFFFFFFFFFFFFFFFFFFFFFFFFFFFFFFFFFFFFFFFFFFFFFFFFFFFFFFFFFFFFFFFFFFF
310
FFFFFFFFFFFFFFFFFFFFFFFFFFFFFFFFFFFFFFFFFFFFFFFFFFFFFFFFFFFFFFFFFFFFFFFFFFFFFFFFFFFFFFFFFFFFFFFFFFFFFFFFFFFFFFFFFFFFFFFFFFFFFFFFFFFFFFFFFFFFFFFFFFFFFFFFFFFFFFFFFFFFFFFFFFFFFFFFFFFFFFFFFFFFFFFFFFFFFFFFFFFFFFFFFFFFFFFFFFFFFFFFFFFFA4FD00FDFD00FD00FDFDFDFDFD
310
FDFDFDFDFDFDFDFDFD00FD00FDFD00FDA4FFFFFF00FFFFFFFFFFFFFFFFFFFFFFFFFFFFFFFFFFFFFFFFFFFFFFFFFFFF00FFFFFFFFFDFFFFFFFFFFFFFFFFFFFFFFFFFFFFFFFFFFFFFFFFFFFFFFFFFFFFFDFFFFFFFFFDFFFFFFFFFFFFFFFFFFFFFFFFFFFFFFFFFFFFFFFFFFFFFFFFFFFFFDFFFFFFFF00FFFFFFFFFFFFFFFFFFFF
310
FFFFFFFFFFFFFFFFFFFFFFFFFFFFFFFF00FFFFFFFFFDFFFFFFFFFFFFFFFFFFFFFFFFFFFFFFFFFFFFFFFFFFFFFFFFFFFFFDFFFFFFFFFDFFFFFFFFFFFFFFFFFFFFFFFFFFFFFFFFFFFFFFFFFFFFFFFFFFFFFDFFFFFFFF00FFFFFFFFFFFFFFFFFFFFFFFFFFFFFFFFFFFFFFFFFFFFFFFFFFFF00FFFFFFFFFDFFFFFFFFFFFFFFFFFF
310
FFFFFFFFFFFFFFFFFFFFFFFFFFFFFFFFFFFDFFFFFFFFFDFFFFFFFFFFFFFFFFFFFFFFFFFFFFFFFFFFFFFFFFFFFFFFFFFFFF00FFFFFFFF00FFFFFFFFFFFFFFFFFFFFFFFFFFFFFFFFFFFFFFFFFFFFFFFFFFFFFDFFFFFFFFFDFFFFFFFFFFFFFFFFFFFFFFFFFFFFFFFFFFFFFFFFFFFFFFFFFFFFFDFFFFFFFF00FFFFFFFFFFFFFFFF
310
FFFFFFFFFFFFFFFFFFFFFFFFFFFFFFFFFFFF00FFFFFFFFFDFFFFFFFFFFFFFFFFFFFFFFFFFFFFFFFFFFFFFFFFFFFFFFFFFFFFFDFFFFFFFFFDFFFFFFFFFFFFFFFFFFFFFFFFFFFFFFFFFFFFFFFFFFFFFFFFFFFFFDFFFFFFFF00FFFFFFFFFFFFFFFFFFFFFFFFFFFFFFFFFFFFFFFFFFFFFFFFFFFF00FFFFFFFFFDFFFFFFFFFFFFFF
310
FFFFFFFFFFFFFFFFFFFFFFFFFFFFFFFFFFFFFFFDFFFFFFFFFDFFFFFFFFFFFFFFFFFFFFFFFFFFFFFFFFFFFFFFFFFFFFFFFFFFFFFDFFFFFFFF00FFFFFFFFFFFFFFFFFFFFFFFFFFFFFFFFFFFFFFFFFFFFFFFFFFFF00FFFFFFA4A400FDFD00FD00FDFDFDFD00FD00FDFD00FDFDFDFD00FD00FDFD00FDA4FFFFFFFFFFFFFFFFFFFF
310
FFFFFFFFFFFFFFFFFFFFFFFFFFFFFFFFFFFFFFFFFFFFFFFFFFFFFFFFFFFFFFFFFFFFFFFFFFFFFFFFFFFFFFFFFFFFFFFFFFFFFFFFFFFFFFFFFFFFFFFFFFFFFFFFFFFFFFFFFFFFFFFFFFFFFFFFFFFFFFFFFFFFFFFFFFFFFFFFFFFFFFFFFFFFFFFFFFFFFFFFFFFFFFFFFFFFFFFFFFFFFFFFFFFFFFFFFFFFFFFFFFFFFFFFFFFFFF
310
FFFFFFFFFFFFFFFFFFFFFFFFFFFFFFFFFFFFFFFFFFFFFFFFFFFFFFFFFFFFFFFFFFFFFFFFFFFFFFFFFFFFFFFFFFFFFFFFFFFFFFFFFFFFFFFF
102
{BLKREFS
331
1E05
102
}
1001
ACAD
1000
DesignCenter Data
1002
{
1070
     1
1070
     4
1002
}
  0
BLOCK_RECORD
  5
22B6
330
1
100
AcDbSymbolTableRecord
100
AcDbBlockTableRecord
  2
LOGO
340
0
310
2800000020000000200000000100080000000000000400000000000000000000000000000000000000000000000080000080000000808000800000008000800080800000C0C0C000C0DCC000F0CAA6000020400000206000002080000020A0000020C0000020E00000400000004020000040400000406000004080000040A0
310
000040C0000040E00000600000006020000060400000606000006080000060A0000060C0000060E00000800000008020000080400000806000008080000080A0000080C0000080E00000A0000000A0200000A0400000A0600000A0800000A0A00000A0C00000A0E00000C0000000C0200000C0400000C0600000C0800000C0
310
A00000C0C00000C0E00000E0000000E0200000E0400000E0600000E0800000E0A00000E0C00000E0E00040000000400020004000400040006000400080004000A0004000C0004000E00040200000402020004020400040206000402080004020A0004020C0004020E000404000004040200040404000404060004040800040
310
40A0004040C0004040E00040600000406020004060400040606000406080004060A0004060C0004060E00040800000408020004080400040806000408080004080A0004080C0004080E00040A0000040A0200040A0400040A0600040A0800040A0A00040A0C00040A0E00040C0000040C0200040C0400040C0600040C08000
310
40C0A00040C0C00040C0E00040E0000040E0200040E0400040E0600040E0800040E0A00040E0C00040E0E00080000000800020008000400080006000800080008000A0008000C0008000E00080200000802020008020400080206000802080008020A0008020C0008020E00080400000804020008040400080406000804080
310
008040A0008040C0008040E00080600000806020008060400080606000806080008060A0008060C0008060E00080800000808020008080400080806000808080008080A0008080C0008080E00080A0000080A0200080A0400080A0600080A0800080A0A00080A0C00080A0E00080C0000080C0200080C0400080C0600080C0
310
800080C0A00080C0C00080C0E00080E0000080E0200080E0400080E0600080E0800080E0A00080E0C00080E0E000C0000000C0002000C0004000C0006000C0008000C000A000C000C000C000E000C0200000C0202000C0204000C0206000C0208000C020A000C020C000C020E000C0400000C0402000C0404000C0406000C0
310
408000C040A000C040C000C040E000C0600000C0602000C0604000C0606000C0608000C060A000C060C000C060E000C0800000C0802000C0804000C0806000C0808000C080A000C080C000C080E000C0A00000C0A02000C0A04000C0A06000C0A08000C0A0A000C0A0C000C0A0E000C0C00000C0C02000C0C04000C0C06000
310
C0C08000C0C0A000F0FBFF00A4A0A000808080000000FF0000FF000000FFFF00FF000000FF00FF00FFFF0000FFFFFF00FFFFFFFFFFFFFFFFFFFFFFFFFFFFFFFFFFFFFFFFFFFFFFFFFFFFFFFFFFFFFFFFFFFFFFFFFFFFFFFFFFFFFFFFFFFFFFFFFFFFFFFFFFFFFFFFFFFFFFFFFFFFFFFFFFFFFFFFFFFFFFFFFFFFFFFFFFFFFF
310
FFFFFFFFFFFFFFFFFFFFFFFFFFFFFFFFFFFFFFFFFFFFFFFFFFFFFFFFFFFFFFFFFFFFFFFFFFFFFFFFFFFFFFFFFFFFFFFFFFFFFFFFFFFFFFFFFFFFFFFFFFFFFFFFFFFFFFFFFFFFFFFFFFFFFFFFFFFFFFFFFFFFFFFFFFFFFFFFFFFFFFFFFFFFFFFFFFFFFFFFFFFFFFFFFFFFFFFFFFFFFFFFFFFFFFFFFFFFFFFFFFFFFFFFFFFFFF
310
FFFFFFFFFFFFFFFFFFFFFFFFFFFFFFFFFFFFFFFFFFFFFFFFFFFFFFFFFFFFFFFFFFFFFFFFFFFFFFFFFFFFFFFFFFFFFFFFFFFFFFFFFFFFFFFFFFFFFFFFFFFFFFFFFFFFFFFFFFFFFFFFFFFFFFFFFFFFFFFFFFFFFFFFFFFFFFFFFFFFFFFFFFFFFFFFFFFFFFFFFFFFFFFFFFFFFFFFFFFFFFFFFFFFFFFFFFFFFFFFFFFFFFFFFFFFFF
310
FFFFFFFFFFFFFFFFFFFFFFFFFFFFFFFFFFFFFFFF000000000000000000000000000000000000000000000000000000000000FFFF00FFFFFFFFFFFFFFFFFFFFFFFFFFFFFFFFFFFFFFFFFFFFFFFFFFFFFFFF00FFFF00FFFFFFFFFFFFFFFFFFFFFFFFFFFFFFFFFFFFFFFFFFFFFFFFFFFFFFFF00FFFF00FFFFFFFFFFFFFFFFFFFF
310
FFFFFFFFFFFFFFFFFFFFFFFFFFFFFFFFFFFF00FFFF00FFFFFFFFFFFFFFFFFFFFFFFFFFFFFFFFFFFFFFFFFFFFFFFFFFFFFFFF00FFFF00FFFFFFFFFFFFFFFFFFFFFFFFFFFFFFFFFFFFFFFFFFFFFFFFFFFFFFFF00FFFF00FFFFFFFFFFFFFFFFFFFFFFFFFFFFFFFFFFFFFFFFFFFFFFFFFFFFFFFF00FFFF00FFFFFFFFFFFFFFFFFF
310
FFFFFFFFFFFFFFFFFFFFFFFFFFFFFFFFFFFFFF00FFFF00FFFFFFFFFFFFFFFFFFFFFFFFFFFFFFFFFFFFFFFFFFFFFFFFFFFFFFFF00FFFF000000000000000000000000000000000000000000000000000000000000FFFFFFFFFFFFFFFFFFFFFFFFFFFFFFFFFFFFFFFFFFFFFFFFFFFFFFFFFFFFFFFFFFFFFFFFFFFFFFFFFFFFFF
310
FFFFFFFFFFFFFFFFFFFFFFFFFFFFFFFFFFFFFFFFFFFFFFFFFFFFFFFFFFFFFFFFFFFFFFFFFFFFFFFFFFFFFFFFFFFFFFFFFFFFFFFFFFFFFFFFFFFFFFFFFFFFFFFFFFFFFFFFFFFFFFFFFFFFFFFFFFFFFFFFFFFFFFFFFFFFFFFFFFFFFFFFFFFFFFFFFFFFFFFFFFFFFFFFFFFFFFFFFFFFFFFFFFFFFFFFFFFFFFFFFFFFFFFFFFFFFF
310
FFFFFFFFFFFFFFFFFFFFFFFFFFFFFFFFFFFFFFFFFFFFFFFFFFFFFFFFFFFFFFFFFFFFFFFFFFFFFFFFFFFFFFFFFFFFFFFFFFFFFFFFFFFFFFFFFFFFFFFFFFFFFFFFFFFFFFFFFFFFFFFFFFFFFFFFFFFFFFFFFFFFFFFFFFFFFFFFFFFFFFFFFFFFFFFFFFFFFFFFFFFFFFFFFFFFFFFFFFFFFFFFFFFFFFFFFFFFFFFFFFFFFFFFFFFFFF
310
FFFFFFFFFFFFFFFFFFFFFFFFFFFFFFFFFFFFFFFFFFFFFFFFFFFFFFFFFFFFFFFFFFFFFFFFFFFFFFFFFFFFFFFFFFFFFFFFFFFFFFFFFFFFFFFF
102
{BLKREFS
331
2CB8
102
}
  0
BLOCK_RECORD
  5
2CA3
330
1
100
AcDbSymbolTableRecord
100
AcDbBlockTableRecord
  2
Zeichnungskopf Lauer Englisch
340
0
310
2800000020000000200000000100080000000000000400000000000000000000000000000000000000000000000080000080000000808000800000008000800080800000C0C0C000C0DCC000F0CAA6000020400000206000002080000020A0000020C0000020E00000400000004020000040400000406000004080000040A0
310
000040C0000040E00000600000006020000060400000606000006080000060A0000060C0000060E00000800000008020000080400000806000008080000080A0000080C0000080E00000A0000000A0200000A0400000A0600000A0800000A0A00000A0C00000A0E00000C0000000C0200000C0400000C0600000C0800000C0
310
A00000C0C00000C0E00000E0000000E0200000E0400000E0600000E0800000E0A00000E0C00000E0E00040000000400020004000400040006000400080004000A0004000C0004000E00040200000402020004020400040206000402080004020A0004020C0004020E000404000004040200040404000404060004040800040
310
40A0004040C0004040E00040600000406020004060400040606000406080004060A0004060C0004060E00040800000408020004080400040806000408080004080A0004080C0004080E00040A0000040A0200040A0400040A0600040A0800040A0A00040A0C00040A0E00040C0000040C0200040C0400040C0600040C08000
310
40C0A00040C0C00040C0E00040E0000040E0200040E0400040E0600040E0800040E0A00040E0C00040E0E00080000000800020008000400080006000800080008000A0008000C0008000E00080200000802020008020400080206000802080008020A0008020C0008020E00080400000804020008040400080406000804080
310
008040A0008040C0008040E00080600000806020008060400080606000806080008060A0008060C0008060E00080800000808020008080400080806000808080008080A0008080C0008080E00080A0000080A0200080A0400080A0600080A0800080A0A00080A0C00080A0E00080C0000080C0200080C0400080C0600080C0
310
800080C0A00080C0C00080C0E00080E0000080E0200080E0400080E0600080E0800080E0A00080E0C00080E0E000C0000000C0002000C0004000C0006000C0008000C000A000C000C000C000E000C0200000C0202000C0204000C0206000C0208000C020A000C020C000C020E000C0400000C0402000C0404000C0406000C0
310
408000C040A000C040C000C040E000C0600000C0602000C0604000C0606000C0608000C060A000C060C000C060E000C0800000C0802000C0804000C0806000C0808000C080A000C080C000C080E000C0A00000C0A02000C0A04000C0A06000C0A08000C0A0A000C0A0C000C0A0E000C0C00000C0C02000C0C04000C0C06000
310
C0C08000C0C0A000F0FBFF00A4A0A000808080000000FF0000FF000000FFFF00FF000000FF00FF00FFFF0000FFFFFF00FFFFFFFFFFFFFFFFFFFFFFFFFFFFFFFFFFFFFFFFFFFFFFFFFFFFFFFFFFFFFFFFFFFFFFFFFFFFFFFFFFFFFFFFFFFFFFFFFFFFFFFFFFFFFFFFFFFFFFFFFFFFFFFFFFFFFFFFFFFFFFFFFFFFFFFFFFFFFF
310
FFFFFFFFFFFFFFFFFFFFFFFFFFFFFFFFFFFFFFFFFFFFFFFFFFFFFFFFFFFFFFFFFFFFFFFFFFFFFFFFFFFFFFFFFFFFFFFFFFFFFFFFFFFFFFFFFFFFFFFFFFFFFFFFFFFFFFFFFFFFFFFFFFFFFFFFFFFFFFFFFFFFFFFFFFFFFFFFFFFFFFFFFFFFFFFFFFFFFFFFFFFFFFFFFFFFFFFFFFFFFFFFFFFFFFFFFFFFFFFFFFFFFFFFFFFFFF
310
FFFFFFFFFFFFFFFFFFFFFFFFFFFFFFFFFFFFFFFFFFFFFFFFFFFFFFFFFFFFFFFFFFFFFFFFFFFFFFFFFFFFFFFFFFFFFFFFFFFFFFFFFFFFFFFFFFFFFFFFFFFFFFFFFFFFFFFFFFFFFFFFFFFFFFFFFFFFFFFFFFFFFFFFFFFFFFFFFFFFFFFFFFFFFFFFFFFFFFFFFFFFFFFFFFFFFFFFFFFFFFFFFFFFFFFFFFFFFFFFFFFFFFFFFFFFFF
310
FFFFFFFFFFFFFFFFFFFFFFFFFFFFFFFFFFFFFFFFFFFFFFFFFFFFFFFFFFFFFFFFFFFFFFFFFFFFFFFFFFFFFFFFFFFFFFFFFFFFFFFFFDFAFDFAFAFDFAFAFAFD0000000000FAFAFAFDFDFDFDFDFAFAFDFDFCFCFFFFFFFDFDFDFDFDFDFDFDFDFD0017000000FAFAFAFA87878787FFFFFFFDFCFCFCFFFFFDFDFDFDFDFDFDFDFDFDFC
310
FCFC0000FAFAFAFAFAFCFCFCFC0000FDFAFAFFFFFFFDFDFDFDFDFDFDFDFDFAFCFCFAFDFDFDFFFFFFFF87FCFCFC87FFFFFF00FFFFFFFDFDFDFDFDFDFDFDFDFAFCFCFAFCFCFDFFFFFFFF8787878787FFFFFF00FFFFFFFDFDFDFDFDFDFDFDFDFAFCFAFAFCFCFAFAFAFA00878787878700000000FFFFFF00FAFAFAFAFAFAFAFAFC
310
FCFCFCFFFFFCFCFCFCFCFCFCFFFFFFFFFFFF00FFFFFF00FAFAFAFAFAFAFAFAFAFAFAFAFAFAFAFAFCFCFCFCFDFDFCFCFCFAFD00FFFFFFFFFFFFFFFFFFFFFFFFFFFFFFFFFFFFFFFFFFFFFFFFFFFFFFFFFFFFFFFFFFFFFFFFFFFFFFFFFFFFFFFFFFFFFFFFFFFFFFFFFFFFFFFFFFFFFFFFFFFFFFFFFFFFFFFFFFFFFFFFFFFFFFFF
310
FFFFFFFFFFFFFFFFFFFFFFFFFFFFFFFFFFFFFFFFFFFFFFFFFFFFFFFFFFFFFFFFFFFFFFFFFFFFFFFFFFFFFFFFFFFFFFFFFFFFFFFFFFFFFFFFFFFFFFFFFFFFFFFFFFFFFFFFFFFFFFFFFFFFFFFFFFFFFFFFFFFFFFFFFFFFFFFFFFFFFFFFFFFFFFFFFFFFFFFFFFFFFFFFFFFFFFFFFFFFFFFFFFFFFFFFFFFFFFFFFFFFFFFFFFFFFF
310
FFFFFFFFFFFFFFFFFFFFFFFFFFFFFFFFFFFFFFFFFFFFFFFFFFFFFFFFFFFFFFFFFFFFFFFFFFFFFFFFFFFFFFFFFFFFFFFFFFFFFFFFFFFFFFFFFFFFFFFFFFFFFFFFFFFFFFFFFFFFFFFFFFFFFFFFFFFFFFFFFFFFFFFFFFFFFFFFFFFFFFFFFFFFFFFFFFFFFFFFFFFFFFFFFFFFFFFFFFFFFFFFFFFFFFFFFFFFFFFFFFFFFFFFFFFFFF
310
FFFFFFFFFFFFFFFFFFFFFFFFFFFFFFFFFFFFFFFFFFFFFFFFFFFFFFFFFFFFFFFFFFFFFFFFFFFFFFFFFFFFFFFFFFFFFFFFFFFFFFFFFFFFFFFF
102
{BLKREFS
331
2D06
102
}
1001
ACAD
1000
DesignCenter Data
1002
{
1070
     1
1070
     4
1002
}
  0
BLOCK_RECORD
  5
5F48
330
1
100
AcDbSymbolTableRecord
100
AcDbBlockTableRecord
  2
_FILLED
340
0
  0
BLOCK_RECORD
  5
65C3
330
1
100
AcDbSymbolTableRecord
100
AcDbBlockTableRecord
  2
Projektionsmethode
340
0
310
2800000020000000200000000100080000000000000400000000000000000000000000000000000000000000000080000080000000808000800000008000800080800000C0C0C000C0DCC000F0CAA6000020400000206000002080000020A0000020C0000020E00000400000004020000040400000406000004080000040A0
310
000040C0000040E00000600000006020000060400000606000006080000060A0000060C0000060E00000800000008020000080400000806000008080000080A0000080C0000080E00000A0000000A0200000A0400000A0600000A0800000A0A00000A0C00000A0E00000C0000000C0200000C0400000C0600000C0800000C0
310
A00000C0C00000C0E00000E0000000E0200000E0400000E0600000E0800000E0A00000E0C00000E0E00040000000400020004000400040006000400080004000A0004000C0004000E00040200000402020004020400040206000402080004020A0004020C0004020E000404000004040200040404000404060004040800040
310
40A0004040C0004040E00040600000406020004060400040606000406080004060A0004060C0004060E00040800000408020004080400040806000408080004080A0004080C0004080E00040A0000040A0200040A0400040A0600040A0800040A0A00040A0C00040A0E00040C0000040C0200040C0400040C0600040C08000
310
40C0A00040C0C00040C0E00040E0000040E0200040E0400040E0600040E0800040E0A00040E0C00040E0E00080000000800020008000400080006000800080008000A0008000C0008000E00080200000802020008020400080206000802080008020A0008020C0008020E00080400000804020008040400080406000804080
310
008040A0008040C0008040E00080600000806020008060400080606000806080008060A0008060C0008060E00080800000808020008080400080806000808080008080A0008080C0008080E00080A0000080A0200080A0400080A0600080A0800080A0A00080A0C00080A0E00080C0000080C0200080C0400080C0600080C0
310
800080C0A00080C0C00080C0E00080E0000080E0200080E0400080E0600080E0800080E0A00080E0C00080E0E000C0000000C0002000C0004000C0006000C0008000C000A000C000C000C000E000C0200000C0202000C0204000C0206000C0208000C020A000C020C000C020E000C0400000C0402000C0404000C0406000C0
310
408000C040A000C040C000C040E000C0600000C0602000C0604000C0606000C0608000C060A000C060C000C060E000C0800000C0802000C0804000C0806000C0808000C080A000C080C000C080E000C0A00000C0A02000C0A04000C0A06000C0A08000C0A0A000C0A0C000C0A0E000C0C00000C0C02000C0C04000C0C06000
310
C0C08000C0C0A000F0FBFF00A4A0A000808080000000FF0000FF000000FFFF00FF000000FF00FF00FFFF0000FFFFFF00FFFFFFFFFFFFFFFFFFFFFFFFFFFFFFFFFFFFFFFFFFFFFFFFFFFFFFFFFFFFFFFFFFFFFFFFFFFFFFFFFFFFFFFFFFFFFFFFFFFFFFFFFFFFFFFFFFFFFFFFFFFFFFFFFFFFFFFFFFFFFFFFFFFFFFFFFFFFFF
310
FFFFFFFFFFFFFFFFFFFFFFFFFFFFFFFFFFFFFFFFFFFFFFFFFFFFFFFFFFFFFFFFFFFFFFFFFFFFFFFFFFFFFFFFFFFFFFFFFFFFFFFFFFFFFFFFFFFFFFFFFFFFFFFFFFFFFFFFFFFFFFFFFFFFFFFFFFFFFFFFFFFFFFFFFFFFFFFFFFFFFFFFFFFFFFFFFFFFFFFFFFFFFFFFFFFFFFFFFFFFFFFFFFFFFFFFFFFFFFFFFFFFFFFFFFFFFF
310
FFFFFFFFFFFFFFFFFFFFFFFFFFFFFFFFFFFFFFFFFFFFFFFFFFFFFFFFFFFFFFFFFFFFFFFFFFFFFFFFFFFFFFFFFFFFFFFFFFFFFFFCFCFCFCFCFCFCFCFCFCFCFCFCFCFCFCFCFCFCFCFCFCFCFCFCFCFCFCFCFCFFFFFCFFFFFFFFFFFFFFFFFFFFFFFFFFFFFFFFFFFFFFFFFFFFFFFFFFFFFFFFFCFFFFFCFFFFFFFFFFFFFFFFFFFFFF
310
FFFFFFFFFFFFFFFFFFFFFDFFFFFFFFFFFFFCFFFFFCFFFFFFFFFFFFFFFFFFFCFCFCFFFFFFFFFFFFFFFFFFFDFCFFFFFFFFFFFCFFFFFCFFFFFFFFFFFCFCFCFCFFFFFCFFFFFFFFFFFFFFFCFCFDFFFCFFFFFFFFFCFFFFFCFFFFFCFCFCFFFFFFFFFFFFFCFFFFFFFFFFFCFCFFFFFDFFFCFFFFFFFFFCFFFFFCFFFFFCFFFFFFFFFFFFFF
310
FFFCFFFFFFFFFFFCFFFFFCFDFCFFFCFFFFFFFCFFFFFCFFFFFCFFFFFFFFFFFFFFFFFCFFFFFFFFFFFCFFFCFFFDFCFFFCFFFFFFFCFFFFFCFFFDFCFDFDFDFDFDFDFDFDFCFDFFFFFDFDFCFCFDFDFDFDFCFDFCFDFFFCFFFFFCFFFFFCFFFFFFFFFFFFFFFFFCFFFFFFFFFFFCFFFCFCFDFCFFFCFFFFFFFCFFFFFCFFFFFCFCFCFFFFFFFF
310
FFFFFCFFFFFFFFFFFCFCFFFFFDFFFFFCFFFFFFFCFFFFFCFFFFFFFFFFFCFCFCFCFFFFFCFFFFFFFFFFFFFFFCFCFDFFFCFFFFFFFFFCFFFFFCFFFFFFFFFFFFFFFFFFFCFCFCFFFFFFFFFFFFFFFFFFFDFCFFFFFFFFFFFCFFFFFCFFFFFFFFFFFFFFFFFFFFFFFFFFFFFFFFFFFFFFFFFFFDFFFFFFFFFFFFFCFFFFFCFFFFFFFFFFFFFFFF
310
FFFFFFFFFFFFFFFFFFFFFFFFFFFFFFFFFFFFFFFFFCFFFFFCFCFCFCFCFCFCFCFCFCFCFCFCFCFCFCFCFCFCFCFCFCFCFCFCFCFCFCFCFCFFFFFFFFFFFFFFFFFFFFFFFFFFFFFFFFFFFFFFFFFFFFFFFFFFFFFFFFFFFFFFFFFFFFFFFFFFFFFFFFFFFFFFFFFFFFFFFFFFFFFFFFFFFFFFFFFFFFFFFFFFFFFFFFFFFFFFFFFFFFFFFFFFFF
310
FFFFFFFFFFFFFFFFFFFFFFFFFFFFFFFFFFFFFFFFFFFFFFFFFFFFFFFFFFFFFFFFFFFFFFFFFFFFFFFFFFFFFFFFFFFFFFFFFFFFFFFFFFFFFFFFFFFFFFFFFFFFFFFFFFFFFFFFFFFFFFFFFFFFFFFFFFFFFFFFFFFFFFFFFFFFFFFFFFFFFFFFFFFFFFFFFFFFFFFFFFFFFFFFFFFFFFFFFFFFFFFFFFFFFFFFFFFFFFFFFFFFFFFFFFFFFF
310
FFFFFFFFFFFFFFFFFFFFFFFFFFFFFFFFFFFFFFFFFFFFFFFFFFFFFFFFFFFFFFFFFFFFFFFFFFFFFFFFFFFFFFFFFFFFFFFFFFFFFFFFFFFFFFFF
102
{BLKREFS
331
65DD
102
}
1001
ACAD
1000
DesignCenter Data
1002
{
1070
     1
1070
     4
1002
}
  0
BLOCK_RECORD
  5
684A
330
1
100
AcDbSymbolTableRecord
100
AcDbBlockTableRecord
  2
*D9
340
0
  0
BLOCK_RECORD
  5
6862
330
1
100
AcDbSymbolTableRecord
100
AcDbBlockTableRecord
  2
*D10
340
0
  0
BLOCK_RECORD
  5
687A
330
1
100
AcDbSymbolTableRecord
100
AcDbBlockTableRecord
  2
*D11
340
0
  0
BLOCK_RECORD
  5
6888
330
1
100
AcDbSymbolTableRecord
100
AcDbBlockTableRecord
  2
*D12
340
0
  0
BLOCK_RECORD
  5
68FB
330
1
100
AcDbSymbolTableRecord
100
AcDbBlockTableRecord
  2
*D13
340
0
  0
BLOCK_RECORD
  5
691D
330
1
100
AcDbSymbolTableRecord
100
AcDbBlockTableRecord
  2
*D14
340
0
  0
ENDTAB
  0
ENDSEC
  0
SECTION
  2
BLOCKS
  0
BLOCK
  5
20
330
1F
100
AcDbEntity
  8
0
100
AcDbBlockBegin
  2
*Model_Space
 70
     0
 10
0.0
 20
0.0
 30
0.0
  3
*Model_Space
  1

  0
ENDBLK
  5
21
330
1F
100
AcDbEntity
  8
0
100
AcDbBlockEnd
  0
BLOCK
  5
24
330
23
100
AcDbEntity
 67
     1
  8
0
100
AcDbBlockBegin
  2
*Paper_Space
 70
     0
 10
0.0
 20
0.0
 30
0.0
  3
*Paper_Space
  1

  0
ENDBLK
  5
25
330
23
100
AcDbEntity
 67
     1
  8
0
100
AcDbBlockEnd
  0
BLOCK
  5
1C
330
1B
100
AcDbEntity
 67
     1
  8
0
100
AcDbBlockBegin
  2
*Paper_Space0
 70
     0
 10
0.0
 20
0.0
 30
0.0
  3
*Paper_Space0
  1

  0
VIEWPORT
  5
44
330
1B
100
AcDbEntity
 67
     1
  8
0
100
AcDbViewport
 10
98.98591613769532
 20
311.5629045408784
 30
0.0
 40
541.4832169644486
 41
652.0949905011293
 68
     0
 69
     0
 12
98.98591613769532
 22
311.5629045408784
 13
0.0
 23
0.0
 14
10.0
 24
10.0
 15
10.0
 25
10.0
 16
0.0
 26
0.0
 36
1.0
 17
0.0
 27
0.0
 37
0.0
 42
50.0
 43
0.0
 44
0.0
 45
652.0949905011293
 50
0.0
 51
0.0
 72
   100
 90
    32800
  1

281
     0
 71
     1
 74
     0
110
0.0
120
0.0
130
0.0
111
1.0
121
0.0
131
0.0
112
0.0
122
1.0
132
0.0
 79
     0
146
0.0
170
     0
  0
VIEWPORT
  5
46
330
1B
100
AcDbEntity
 67
     1
  8
0
100
AcDbViewport
 10
98.09691238403321
 20
141.9542601108551
 30
0.0
 40
156.9550598144531
 41
227.1268161773682
 68
     0
 69
     0
 12
98.0
 22
141.75
 13
0.0
 23
0.0
 14
10.0
 24
10.0
 15
10.0
 25
10.0
 16
0.0
 26
0.0
 36
1.0
 17
0.0
 27
0.0
 37
0.0
 42
50.0
 43
0.0
 44
0.0
 45
290.4079930659185
 50
0.0
 51
0.0
 72
   100
 90
    33376
  1

281
     0
 71
     1
 74
     0
110
0.0
120
0.0
130
0.0
111
1.0
121
0.0
131
0.0
112
0.0
122
1.0
132
0.0
 79
     0
146
0.0
170
     0
  0
ENDBLK
  5
1D
330
1B
100
AcDbEntity
 67
     1
  8
0
100
AcDbBlockEnd
  0
BLOCK
  5
12FA
330
12F5
100
AcDbEntity
  8
0
100
AcDbBlockBegin
  2
Aenderungspositionen1
 70
     2
 10
0.0
 20
0.0
 30
0.0
  3
Aenderungspositionen1
  1

  0
ATTDEF
  5
12F6
330
12F5
100
AcDbEntity
  8
Änderung
100
AcDbText
 10
2.114609555218297
 20
5.179440451053324
 30
0.0
 40
2.5
  1
1.
  7
ISOCP
100
AcDbAttributeDefinition
  3
Aenderungspos1
  2
Pos1.
 70
     0
  0
ATTDEF
  5
12F7
330
12F5
100
AcDbEntity
  8
Änderung
100
AcDbText
 10
16.8306021913774
 20
5.092344226035386
 30
0.0
 40
2.5
  1
1111
  7
ISOCP
100
AcDbAttributeDefinition
  3
Änderungsnr.1
  2
Aendnr1
 70
     0
  0
ATTDEF
  5
12F8
330
12F5
100
AcDbEntity
  8
Änderung
100
AcDbText
 10
32.93104251893077
 20
5.10543102193683
 30
0.0
 40
2.5
  1
00.00.00
  7
ISOCP
100
AcDbAttributeDefinition
  3
Änd.Datum1
  2
Dat1
 70
     0
  0
ATTDEF
  5
12F9
330
12F5
100
AcDbEntity
  8
Änderung
100
AcDbText
 10
48.13966863967789
 20
5.112539759865832
 30
0.0
 40
2.5
  1
XX
  7
ISOCP
100
AcDbAttributeDefinition
  3
Name1
  2
NAME1
 70
     0
  0
ENDBLK
  5
12FB
330
12F5
100
AcDbEntity
  8
0
100
AcDbBlockEnd
  0
BLOCK
  5
1301
330
12FC
100
AcDbEntity
  8
0
100
AcDbBlockBegin
  2
Aenderungspositionen2
 70
     2
 10
0.0
 20
0.0
 30
0.0
  3
Aenderungspositionen2
  1

  0
ATTDEF
  5
12FD
330
12FC
100
AcDbEntity
  8
Änderung
100
AcDbText
 10
2.023114024400005
 20
9.401662673253326
 30
0.0
 40
2.5
  1
2.
  7
ISOCP
100
AcDbAttributeDefinition
  3
Aenderungspos2
  2
Pos2.
 70
     0
  0
ATTDEF
  5
12FE
330
12FC
100
AcDbEntity
  8
Änderung
100
AcDbText
 10
16.7391066605591
 20
9.314566448235389
 30
0.0
 40
2.5
  1
2222
  7
ISOCP
100
AcDbAttributeDefinition
  3
Änderungsnr.2
  2
Aendnr2
 70
     0
  0
ATTDEF
  5
12FF
330
12FC
100
AcDbEntity
  8
Änderung
100
AcDbText
 10
32.83954698811248
 20
9.327653244136833
 30
0.0
 40
2.5
  1
00.00.00
  7
ISOCP
100
AcDbAttributeDefinition
  3
Änd.Datum2
  2
Dat2
 70
     0
  0
ATTDEF
  5
1300
330
12FC
100
AcDbEntity
  8
Änderung
100
AcDbText
 10
48.0481731088596
 20
9.334761982065835
 30
0.0
 40
2.5
  1
XX
  7
ISOCP
100
AcDbAttributeDefinition
  3
Name2
  2
NAME2
 70
     0
  0
ENDBLK
  5
1302
330
12FC
100
AcDbEntity
  8
0
100
AcDbBlockEnd
  0
BLOCK
  5
1308
330
1303
100
AcDbEntity
  8
0
100
AcDbBlockBegin
  2
Aenderungspositionen3
 70
     2
 10
0.0
 20
0.0
 30
0.0
  3
Aenderungspositionen3
  1

  0
ATTDEF
  5
1304
330
1303
100
AcDbEntity
  8
Änderung
100
AcDbText
 10
2.080654668117862
 20
13.5045743770163
 30
0.0
 40
2.5
  1
3.
  7
ISOCP
100
AcDbAttributeDefinition
  3
Aenderungspos3
  2
Pos3.
 70
     0
  0
ATTDEF
  5
1305
330
1303
100
AcDbEntity
  8
Änderung
100
AcDbText
 10
16.79664730427696
 20
13.41747815199836
 30
0.0
 40
2.5
  1
3333
  7
ISOCP
100
AcDbAttributeDefinition
  3
Änderungsnr.3
  2
Aendnr3
 70
     0
  0
ATTDEF
  5
1306
330
1303
100
AcDbEntity
  8
Änderung
100
AcDbText
 10
32.89708763183033
 20
13.4305649478998
 30
0.0
 40
2.5
  1
00.00.00
  7
ISOCP
100
AcDbAttributeDefinition
  3
Änd.Datum3
  2
Dat3
 70
     0
  0
ATTDEF
  5
1307
330
1303
100
AcDbEntity
  8
Änderung
100
AcDbText
 10
48.10571375257746
 20
13.4376736858288
 30
0.0
 40
2.5
  1
XX
  7
ISOCP
100
AcDbAttributeDefinition
  3
Name3
  2
NAME3
 70
     0
  0
ENDBLK
  5
1309
330
1303
100
AcDbEntity
  8
0
100
AcDbBlockEnd
  0
BLOCK
  5
1DF9
330
1DB4
100
AcDbEntity
  8
0
100
AcDbBlockBegin
  2
ISO A3 Rahmen
 70
     0
 10
0.0
 20
0.0
 30
0.0
  3
ISO A3 Rahmen
  1

  0
LINE
  5
225E
330
1DB4
100
AcDbEntity
  8
FRAME 070
100
AcDbLine
 10
0.0000000000001137
 20
0.0
 30
0.0
 11
0.0000000000001137
 21
273.0
 31
0.0
  0
LINE
  5
225F
330
1DB4
100
AcDbEntity
  8
FRAME 070
100
AcDbLine
 10
-400.0000000000002
 20
272.9999999999997
 30
0.0
 11
-400.0
 21
-0.0000000000001136
 31
0.0
  0
LINE
  5
2260
330
1DB4
100
AcDbEntity
  8
FRAME 070
100
AcDbLine
 10
-400.0
 20
-0.0000000000001137
 30
0.0
 11
0.0
 21
0.0
 31
0.0
  0
LINE
  5
2261
330
1DB4
100
AcDbEntity
  8
FRAME 050
100
AcDbLine
 10
-350.0
 20
-5.000000000000113
 30
0.0
 11
-350.0
 21
-0.0000000000001137
 31
0.0
  0
LINE
  5
2262
330
1DB4
100
AcDbEntity
  8
FRAME 050
100
AcDbLine
 10
-300.0
 20
-5.00000000000017
 30
0.0
 11
-300.0
 21
-0.0000000000001705
 31
0.0
  0
LINE
  5
2263
330
1DB4
100
AcDbEntity
  8
FRAME 200
100
AcDbLine
 10
-410.0
 20
-12.00000000000017
 30
0.0
 11
-410.0
 21
-2.00000000000017
 31
0.0
  0
LINE
  5
2264
330
1DB4
100
AcDbEntity
  8
FRAME 200
100
AcDbLine
 10
-410.0
 20
-12.00000000000017
 30
0.0
 11
-400.0
 21
-12.00000000000011
 31
0.0
  0
LINE
  5
2265
330
1DB4
100
AcDbEntity
  8
FRAME 050
100
AcDbLine
 10
-404.4999999999999
 20
-4.500000000000114
 30
0.0
 11
-402.5
 21
-4.500000000000113
 31
0.0
  0
LINE
  5
2266
330
1DB4
100
AcDbEntity
  8
FRAME 050
100
AcDbLine
 10
-404.4999999999999
 20
-2.500000000000115
 30
0.0
 11
-404.4999999999999
 21
-4.500000000000114
 31
0.0
  0
TEXT
  5
2267
330
1DB4
100
AcDbEntity
  8
FRAME 050
100
AcDbText
 10
-375.75
 20
-4.000000000000113
 30
0.0
 40
3.0
  1
1
  7
ISO Proportional
 72
     4
 11
-375.0
 21
-2.500000000000113
 31
0.0
100
AcDbText
  0
TEXT
  5
2268
330
1DB4
100
AcDbEntity
  8
FRAME 050
100
AcDbText
 10
-403.5499999999998
 20
20.0
 30
0.0
 40
3.0
  1
F
  7
ISO Proportional
 72
     4
 11
-402.4999999999997
 21
21.5
 31
0.0
100
AcDbText
  0
TEXT
  5
2269
330
1DB4
100
AcDbEntity
  8
FRAME 050
100
AcDbText
 10
-326.1019980314961
 20
-4.075295275590607
 30
0.0
 40
3.0
  1
2
  7
ISO Proportional
 72
     4
 11
-325.0
 21
-2.500000000000056
 31
0.0
100
AcDbText
  0
LINE
  5
226A
330
1DB4
100
AcDbEntity
  8
FRAME 050
100
AcDbLine
 10
-250.0
 20
-5.000000000000113
 30
0.0
 11
-250.0
 21
-0.0000000000001137
 31
0.0
  0
LINE
  5
226B
330
1DB4
100
AcDbEntity
  8
FRAME 050
100
AcDbLine
 10
-240.0
 20
-5.000000000000113
 30
0.0
 11
-240.0
 21
-0.0000000000001137
 31
0.0
  0
LINE
  5
226C
330
1DB4
100
AcDbEntity
  8
FRAME 050
100
AcDbLine
 10
-230.0
 20
-5.000000000000113
 30
0.0
 11
-230.0
 21
-0.0000000000001137
 31
0.0
  0
LINE
  5
226D
330
1DB4
100
AcDbEntity
  8
FRAME 050
100
AcDbLine
 10
-220.0
 20
-5.000000000000113
 30
0.0
 11
-220.0
 21
-0.0000000000001137
 31
0.0
  0
LINE
  5
226E
330
1DB4
100
AcDbEntity
  8
FRAME 050
100
AcDbLine
 10
-210.0
 20
-5.000000000000113
 30
0.0
 11
-210.0
 21
-0.0000000000001137
 31
0.0
  0
LINE
  5
226F
330
1DB4
100
AcDbEntity
  8
FRAME 050
100
AcDbLine
 10
-200.0
 20
-0.0000000000001137
 30
0.0
 11
-200.0
 21
-5.000000000000113
 31
0.0
  0
LINE
  5
2270
330
1DB4
100
AcDbEntity
  8
FRAME 050
100
AcDbLine
 10
-190.0
 20
-5.000000000000056
 30
0.0
 11
-190.0
 21
-0.0000000000000568
 31
0.0
  0
LINE
  5
2271
330
1DB4
100
AcDbEntity
  8
FRAME 050
100
AcDbLine
 10
-180.0
 20
-5.000000000000056
 30
0.0
 11
-180.0
 21
-0.0000000000000568
 31
0.0
  0
LINE
  5
2272
330
1DB4
100
AcDbEntity
  8
FRAME 050
100
AcDbLine
 10
-170.0
 20
-5.000000000000056
 30
0.0
 11
-170.0
 21
-0.0000000000000568
 31
0.0
  0
LINE
  5
2273
330
1DB4
100
AcDbEntity
  8
FRAME 050
100
AcDbLine
 10
-160.0
 20
-5.000000000000056
 30
0.0
 11
-160.0
 21
-0.0000000000000568
 31
0.0
  0
LINE
  5
2274
330
1DB4
100
AcDbEntity
  8
FRAME 050
100
AcDbLine
 10
-150.0
 20
-5.000000000000113
 30
0.0
 11
-150.0
 21
-0.0000000000001137
 31
0.0
  0
LINE
  5
2275
330
1DB4
100
AcDbEntity
  8
FRAME 050
100
AcDbLine
 10
-250.0
 20
-5.000000000000113
 30
0.0
 11
-150.0
 21
-5.000000000000113
 31
0.0
  0
TEXT
  5
2276
330
1DB4
100
AcDbEntity
  8
FRAME 050
100
AcDbText
 10
-276.112132034356
 20
-3.937867965644209
 30
0.0
 40
3.0
  1
3
  7
ISO Proportional
 72
     4
 11
-275.0
 21
-2.50000000000017
 31
0.0
100
AcDbText
  0
LINE
  5
2277
330
1DB4
100
AcDbEntity
  8
FRAME 050
100
AcDbLine
 10
-405.0000000000002
 20
44.5
 30
0.0
 11
-400.0000000000002
 21
44.5
 31
0.0
  0
TEXT
  5
2278
330
1DB4
100
AcDbEntity
  8
FRAME 050
100
AcDbText
 10
-403.5499999999998
 20
66.0
 30
0.0
 40
3.0
  1
E
  7
ISO Proportional
 72
     4
 11
-402.4999999999997
 21
67.5
 31
0.0
100
AcDbText
  0
TEXT
  5
2279
330
1DB4
100
AcDbEntity
  8
FRAME 050
100
AcDbText
 10
-403.7854315472394
 20
111.9999999999997
 30
0.0
 40
3.0
  1
D
  7
ISO Proportional
 72
     4
 11
-402.5
 21
113.4999999999998
 31
0.0
100
AcDbText
  0
LINE
  5
227A
330
1DB4
100
AcDbEntity
  8
FRAME 050
100
AcDbLine
 10
-400.0
 20
90.49999999999977
 30
0.0
 11
-405.0
 21
90.49999999999972
 31
0.0
  0
LINE
  5
227B
330
1DB4
100
AcDbEntity
  8
FRAME 200
100
AcDbLine
 10
10.0
 20
-12.0
 30
0.0
 11
0.0
 21
-12.0
 31
0.0
  0
LINE
  5
227C
330
1DB4
100
AcDbEntity
  8
FRAME 050
100
AcDbLine
 10
-100.0
 20
-5.000000000000056
 30
0.0
 11
-100.0
 21
-0.0000000000000568
 31
0.0
  0
LINE
  5
227D
330
1DB4
100
AcDbEntity
  8
FRAME 050
100
AcDbLine
 10
-50.0
 20
-5.0
 30
0.0
 11
-50.0
 21
0.0
 31
0.0
  0
TEXT
  5
227E
330
1DB4
100
AcDbEntity
  8
FRAME 050
100
AcDbText
 10
-126.0346456692913
 20
-4.067322834645782
 30
0.0
 40
3.0
  1
6
  7
ISO Proportional
 72
     4
 11
-125.0
 21
-2.500000000000113
 31
0.0
100
AcDbText
  0
TEXT
  5
227F
330
1DB4
100
AcDbEntity
  8
FRAME 050
100
AcDbText
 10
-76.05
 20
-4.000000000000056
 30
0.0
 40
3.0
  1
7
  7
ISO Proportional
 72
     4
 11
-75.0
 21
-2.500000000000056
 31
0.0
100
AcDbText
  0
TEXT
  5
2280
330
1DB4
100
AcDbEntity
  8
FRAME 050
100
AcDbText
 10
-26.05
 20
-3.999999999999999
 30
0.0
 40
3.0
  1
8
  7
ISO Proportional
 72
     4
 11
-25.0
 21
-2.5
 31
0.0
100
AcDbText
  0
LINE
  5
2281
330
1DB4
100
AcDbEntity
  8
FRAME 200
100
AcDbLine
 10
10.0
 20
-12.0
 30
0.0
 11
10.0
 21
-2.0
 31
0.0
  0
LINE
  5
2282
330
1DB4
100
AcDbEntity
  8
FRAME 050
100
AcDbLine
 10
2.500000000000227
 20
-4.499999999999999
 30
0.0
 11
4.500000000000113
 21
-4.499999999999999
 31
0.0
  0
LINE
  5
2283
330
1DB4
100
AcDbEntity
  8
FRAME 050
100
AcDbLine
 10
4.500000000000113
 20
-4.499999999999999
 30
0.0
 11
4.500000000000227
 21
-2.499999999999998
 31
0.0
  0
TEXT
  5
2284
330
1DB4
100
AcDbEntity
  8
FRAME 050
100
AcDbText
 10
1.449999999999999
 20
20.0
 30
0.0
 40
3.0
  1
F
  7
ISO Proportional
 72
     4
 11
2.5
 21
21.5
 31
0.0
100
AcDbText
  0
LINE
  5
2285
330
1DB4
100
AcDbEntity
  8
FRAME 050
100
AcDbLine
 10
5.0
 20
90.49999999999988
 30
0.0
 11
0.0
 21
90.49999999999988
 31
0.0
  0
LINE
  5
2286
330
1DB4
100
AcDbEntity
  8
FRAME 050
100
AcDbLine
 10
5.0
 20
44.5
 30
0.0
 11
0.0
 21
44.5
 31
0.0
  0
TEXT
  5
2287
330
1DB4
100
AcDbEntity
  8
FRAME 050
100
AcDbText
 10
1.45
 20
66.0
 30
0.0
 40
3.0
  1
E
  7
ISO Proportional
 72
     4
 11
2.5
 21
67.5
 31
0.0
100
AcDbText
  0
TEXT
  5
2288
330
1DB4
100
AcDbEntity
  8
FRAME 050
100
AcDbText
 10
1.214568452760548
 20
112.0
 30
0.0
 40
3.0
  1
D
  7
ISO Proportional
 72
     4
 11
2.5
 21
113.5
 31
0.0
100
AcDbText
  0
LINE
  5
2289
330
1DB4
100
AcDbEntity
  8
FRAME 070
100
AcDbLine
 10
0.0
 20
273.0
 30
0.0
 11
-400.0000000000002
 21
272.9999999999998
 31
0.0
  0
TEXT
  5
228A
330
1DB4
100
AcDbEntity
  8
FRAME 050
100
AcDbText
 10
-403.4801014613495
 20
157.9999999999998
 30
0.0
 40
3.0
  1
C
  7
ISO Proportional
 72
     4
 11
-402.5
 21
159.4999999999997
 31
0.0
100
AcDbText
  0
LINE
  5
228B
330
1DB4
100
AcDbEntity
  8
FRAME 050
100
AcDbLine
 10
-405.0
 20
136.4999999999997
 30
0.0
 11
-400.0
 21
136.4999999999997
 31
0.0
  0
TEXT
  5
228C
330
1DB4
100
AcDbEntity
  8
FRAME 050
100
AcDbText
 10
-403.6999999999999
 20
203.9999999999998
 30
0.0
 40
3.0
  1
B
  7
ISO Proportional
 72
     4
 11
-402.5
 21
205.4999999999998
 31
0.0
100
AcDbText
  0
LINE
  5
228D
330
1DB4
100
AcDbEntity
  8
FRAME 050
100
AcDbLine
 10
-400.0
 20
182.4999999999997
 30
0.0
 11
-405.0
 21
182.4999999999997
 31
0.0
  0
LINE
  5
228E
330
1DB4
100
AcDbEntity
  8
FRAME 050
100
AcDbLine
 10
-400.0
 20
228.4999999999998
 30
0.0
 11
-405.0
 21
228.4999999999998
 31
0.0
  0
LINE
  5
228F
330
1DB4
100
AcDbEntity
  8
FRAME 050
100
AcDbLine
 10
-404.5000000000002
 20
277.4999999999998
 30
0.0
 11
-404.5000000000002
 21
275.4999999999998
 31
0.0
  0
TEXT
  5
2290
330
1DB4
100
AcDbEntity
  8
FRAME 050
100
AcDbText
 10
-375.7500000000002
 20
273.9999999999998
 30
0.0
 40
3.0
  1
1
  7
ISO Proportional
 72
     4
 11
-375.0000000000002
 21
275.4999999999998
 31
0.0
100
AcDbText
  0
LINE
  5
2291
330
1DB4
100
AcDbEntity
  8
FRAME 050
100
AcDbLine
 10
-350.0000000000002
 20
272.9999999999998
 30
0.0
 11
-350.0000000000002
 21
277.9999999999998
 31
0.0
  0
TEXT
  5
2292
330
1DB4
100
AcDbEntity
  8
FRAME 050
100
AcDbText
 10
-326.1019980314963
 20
273.9247047244092
 30
0.0
 40
3.0
  1
2
  7
ISO Proportional
 72
     4
 11
-325.0000000000002
 21
275.4999999999998
 31
0.0
100
AcDbText
  0
LINE
  5
2293
330
1DB4
100
AcDbEntity
  8
FRAME 050
100
AcDbLine
 10
-300.0000000000002
 20
272.9999999999998
 30
0.0
 11
-300.0000000000002
 21
277.9999999999998
 31
0.0
  0
LINE
  5
2294
330
1DB4
100
AcDbEntity
  8
FRAME 200
100
AcDbLine
 10
-410.0000000000002
 20
284.9999999999998
 30
0.0
 11
-410.0000000000002
 21
274.9999999999998
 31
0.0
  0
TEXT
  5
2295
330
1DB4
100
AcDbEntity
  8
FRAME 050
100
AcDbText
 10
-403.8500000000002
 20
249.9999999999998
 30
0.0
 40
3.0
  1
A
  7
ISO Proportional
 72
     4
 11
-402.5000000000002
 21
251.4999999999998
 31
0.0
100
AcDbText
  0
LINE
  5
2296
330
1DB4
100
AcDbEntity
  8
FRAME 050
100
AcDbLine
 10
-402.5000000000002
 20
277.4999999999998
 30
0.0
 11
-404.5000000000002
 21
277.4999999999998
 31
0.0
  0
LINE
  5
2297
330
1DB4
100
AcDbEntity
  8
FRAME 200
100
AcDbLine
 10
-400.0000000000002
 20
284.9999999999998
 30
0.0
 11
-410.0000000000002
 21
284.9999999999998
 31
0.0
  0
TEXT
  5
2298
330
1DB4
100
AcDbEntity
  8
FRAME 050
100
AcDbText
 10
-276.1121320343562
 20
274.0621320343558
 30
0.0
 40
3.0
  1
3
  7
ISO Proportional
 72
     4
 11
-275.0000000000002
 21
275.4999999999999
 31
0.0
100
AcDbText
  0
LINE
  5
2299
330
1DB4
100
AcDbEntity
  8
FRAME 050
100
AcDbLine
 10
-250.0
 20
272.9999999999999
 30
0.0
 11
-250.0
 21
277.9999999999999
 31
0.0
  0
TEXT
  5
229A
330
1DB4
100
AcDbEntity
  8
FRAME 050
100
AcDbText
 10
-226.2
 20
273.9999999999999
 30
0.0
 40
3.0
  1
4
  7
ISO Proportional
 72
     4
 11
-225.0
 21
275.4999999999999
 31
0.0
100
AcDbText
  0
LINE
  5
229B
330
1DB4
100
AcDbEntity
  8
FRAME 050
100
AcDbLine
 10
-200.0
 20
272.9999999999999
 30
0.0
 11
-200.0
 21
277.9999999999999
 31
0.0
  0
TEXT
  5
229C
330
1DB4
100
AcDbEntity
  8
FRAME 050
100
AcDbText
 10
-176.1121320343559
 20
274.0621320343558
 30
0.0
 40
3.0
  1
5
  7
ISO Proportional
 72
     4
 11
-175.0
 21
275.4999999999999
 31
0.0
100
AcDbText
  0
LINE
  5
229D
330
1DB4
100
AcDbEntity
  8
FRAME 050
100
AcDbLine
 10
-150.0
 20
272.9999999999999
 30
0.0
 11
-150.0
 21
277.9999999999999
 31
0.0
  0
LINE
  5
229E
330
1DB4
100
AcDbEntity
  8
FRAME 050
100
AcDbLine
 10
5.0
 20
182.5
 30
0.0
 11
0.0
 21
182.5
 31
0.0
  0
LINE
  5
229F
330
1DB4
100
AcDbEntity
  8
FRAME 050
100
AcDbLine
 10
5.0
 20
228.5
 30
0.0
 11
0.0
 21
228.5
 31
0.0
  0
LINE
  5
22A0
330
1DB4
100
AcDbEntity
  8
FRAME 050
100
AcDbLine
 10
0.0
 20
136.5
 30
0.0
 11
5.0
 21
136.5
 31
0.0
  0
TEXT
  5
22A1
330
1DB4
100
AcDbEntity
  8
FRAME 050
100
AcDbText
 10
1.51989853865046
 20
158.0
 30
0.0
 40
3.0
  1
C
  7
ISO Proportional
 72
     4
 11
2.5
 21
159.5
 31
0.0
100
AcDbText
  0
TEXT
  5
22A2
330
1DB4
100
AcDbEntity
  8
FRAME 050
100
AcDbText
 10
1.299999999999997
 20
204.0
 30
0.0
 40
3.0
  1
B
  7
ISO Proportional
 72
     4
 11
2.5
 21
205.5
 31
0.0
100
AcDbText
  0
LINE
  5
22A3
330
1DB4
100
AcDbEntity
  8
FRAME 200
100
AcDbLine
 10
10.0
 20
285.0
 30
0.0
 11
0.0
 21
285.0
 31
0.0
  0
TEXT
  5
22A4
330
1DB4
100
AcDbEntity
  8
FRAME 050
100
AcDbText
 10
-126.0346456692913
 20
273.9326771653543
 30
0.0
 40
3.0
  1
6
  7
ISO Proportional
 72
     4
 11
-125.0
 21
275.5
 31
0.0
100
AcDbText
  0
LINE
  5
22A5
330
1DB4
100
AcDbEntity
  8
FRAME 050
100
AcDbLine
 10
-100.0
 20
273.0
 30
0.0
 11
-100.0
 21
278.0
 31
0.0
  0
TEXT
  5
22A6
330
1DB4
100
AcDbEntity
  8
FRAME 050
100
AcDbText
 10
-76.05
 20
274.0
 30
0.0
 40
3.0
  1
7
  7
ISO Proportional
 72
     4
 11
-75.0
 21
275.5
 31
0.0
100
AcDbText
  0
LINE
  5
22A7
330
1DB4
100
AcDbEntity
  8
FRAME 050
100
AcDbLine
 10
-50.0
 20
273.0
 30
0.0
 11
-50.0
 21
278.0
 31
0.0
  0
TEXT
  5
22A8
330
1DB4
100
AcDbEntity
  8
FRAME 050
100
AcDbText
 10
-26.05
 20
274.0
 30
0.0
 40
3.0
  1
8
  7
ISO Proportional
 72
     4
 11
-25.0
 21
275.5
 31
0.0
100
AcDbText
  0
LINE
  5
22A9
330
1DB4
100
AcDbEntity
  8
FRAME 050
100
AcDbLine
 10
4.5
 20
275.5
 30
0.0
 11
4.5
 21
277.5
 31
0.0
  0
LINE
  5
22AA
330
1DB4
100
AcDbEntity
  8
FRAME 200
100
AcDbLine
 10
10.0
 20
275.0
 30
0.0
 11
10.0
 21
285.0
 31
0.0
  0
TEXT
  5
22AB
330
1DB4
100
AcDbEntity
  8
FRAME 050
100
AcDbText
 10
1.149999999999999
 20
250.0
 30
0.0
 40
3.0
  1
A
  7
ISO Proportional
 72
     4
 11
2.5
 21
251.5
 31
0.0
100
AcDbText
  0
LINE
  5
22AC
330
1DB4
100
AcDbEntity
  8
FRAME 050
100
AcDbLine
 10
4.5
 20
277.5
 30
0.0
 11
2.5
 21
277.5
 31
0.0
  0
ENDBLK
  5
1DFA
330
1DB4
100
AcDbEntity
  8
0
100
AcDbBlockEnd
  0
BLOCK
  5
2CA1
330
22B6
100
AcDbEntity
  8
0
100
AcDbBlockBegin
  2
LOGO
 70
     0
 10
0.0
 20
0.0
 30
0.0
  3
LOGO
  1

  0
LWPOLYLINE
  5
73B9
330
22B6
100
AcDbEntity
  8
Körperlinie_s-w
100
AcDbPolyline
 90
        4
 70
     1
 43
0.0
 10
0.0
 20
0.0
 10
43.79999999999995
 20
0.0
 10
43.79999999999995
 20
-15.02222222220001
 10
0.0
 20
-15.02222222220001
  0
ENDBLK
  5
2CA2
330
22B6
100
AcDbEntity
  8
0
100
AcDbBlockEnd
  0
BLOCK
  5
2CE8
330
2CA3
100
AcDbEntity
  8
0
 62
     7
100
AcDbBlockBegin
  2
Zeichnungskopf Lauer Englisch
 70
     2
 10
0.0
 20
0.0
 30
0.0
  3
Zeichnungskopf Lauer Englisch
  1

  0
LINE
  5
2CA4
330
2CA3
100
AcDbEntity
  8
LINIE_KOPF_025
 62
     0
 48
5.0
100
AcDbLine
 10
-187.0
 20
37.80000000000001
 30
0.0
 11
0.0
 21
37.80000000000001
 31
0.0
  0
LINE
  5
2CA5
330
2CA3
100
AcDbEntity
  8
LINIE_KOPF_05
 48
5.0
100
AcDbLine
 10
0.0
 20
0.0
 30
0.0
 11
-187.0
 21
0.0
 31
0.0
  0
LINE
  5
2CA6
330
2CA3
100
AcDbEntity
  8
LINIE_KOPF_05
 48
5.0
100
AcDbLine
 10
0.0
 20
50.66666666679998
 30
0.0
 11
-187.0
 21
50.66666666679998
 31
0.0
  0
LINE
  5
2CA7
330
2CA3
100
AcDbEntity
  8
LINIE_KOPF_025
 62
     0
 48
5.0
100
AcDbLine
 10
-132.2
 20
15.02222222220001
 30
0.0
 11
0.0
 21
15.02222222220001
 31
0.0
  0
TEXT
  5
2CA8
330
2CA3
100
AcDbEntity
  8
Text_Kopf_025
 48
5.0
100
AcDbText
 10
-42.62240303044086
 20
47.56020196081737
 30
0.0
 40
2.0
  1
Weight
  7
ISOCP
100
AcDbText
  0
LINE
  5
2CA9
330
2CA3
100
AcDbEntity
  8
LINIE_KOPF_018
 48
5.0
100
AcDbLine
 10
0.0
 20
46.54184868986817
 30
0.0
 11
-88.39999999999987
 21
46.54184868986817
 31
0.0
  0
ATTDEF
  5
2CAA
330
2CA3
100
AcDbEntity
  8
Text_Kopf_05
100
AcDbText
 10
-51.55734975042779
 20
33.11048129467928
 30
0.0
 40
4.2
  1
Projekt
  7
ISOCP
 72
     4
 11
-41.89734975042779
 21
34.49349644658094
 31
0.0
100
AcDbAttributeDefinition
  3
Projekt
  2
PROJEKT
 70
     0
  0
ATTDEF
  5
2CAB
330
2CA3
100
AcDbEntity
  8
Text_Kopf_05
100
AcDbText
 10
-55.55413799274528
 20
28.76881897657523
 30
0.0
 40
3.5
  1
Benennung 0
  7
ISOCP
 72
     4
 11
-42.42776003998938
 21
29.93108150121481
 31
0.0
100
AcDbAttributeDefinition
  3
Benennung 0
  2
BENENNUNG0
 70
     0
  0
ATTDEF
  5
2CAC
330
2CA3
100
AcDbEntity
  8
Text_Kopf_05
100
AcDbText
 10
-55.62285389568446
 20
24.63468172149897
 30
0.0
 40
3.5
  1
Benennung 1
  7
ISOCP
 72
     4
 11
-42.84785389568447
 21
25.79625526976059
 31
0.0
100
AcDbAttributeDefinition
  3
Benennung 1
  2
BENENNUNG1
 70
     0
  0
ATTDEF
  5
2CAD
330
2CA3
100
AcDbEntity
  8
Text_Kopf_035
100
AcDbText
 10
-51.50961316222416
 20
15.65783510543242
 30
0.0
 40
2.8
  1
Ansichten
  7
ISOCP
 72
     4
 11
-43.19537200083345
 21
17.01409394404172
 31
0.0
100
AcDbAttributeDefinition
  3
Ansichten
  2
ANSICHTEN
 70
     0
  0
LINE
  5
2CAE
330
2CA3
100
AcDbEntity
  8
LINIE_KOPF_018
 48
5.0
100
AcDbLine
 10
0.0
 20
4.199999999999988
 30
0.0
 11
-88.39999999999987
 21
4.199999999999988
 31
0.0
  0
TEXT
  5
2CAF
330
2CA3
100
AcDbEntity
  8
Text_Kopf_025
 48
5.0
100
AcDbText
 10
-42.804456600403
 20
1.043264729245095
 30
0.0
 40
2.0
  1
Subst. of.:
  7
ISOCP
100
AcDbText
  0
MTEXT
  5
2CB0
330
2CA3
100
AcDbEntity
  8
Zeichnungsrahmen
 62
     3
100
AcDbMText
 10
-185.7410509784575
 20
50.10738958718412
 30
0.0
 40
1.5
 41
58.3598
 71
     1
 72
     5
  1
This drawing is our intellectuel and substantive property.\PIt is a company secret, which may not be copied,dupli-\Pcated or made accessible to third parties.\PIt has to be returned to us upon demand and is not subject \Pto a revision service.
  7
ISOCP
 73
     1
 44
1.0
  0
LINE
  5
2CB1
330
2CA3
100
AcDbEntity
  8
LINIE_KOPF_05
 48
5.0
100
AcDbLine
 10
-187.0
 20
0.0
 30
0.0
 11
-187.0
 21
50.66666666679998
 31
0.0
  0
LINE
  5
2CB2
330
2CA3
100
AcDbEntity
  8
LINIE_KOPF_025
 62
     0
 48
5.0
100
AcDbLine
 10
-132.2
 20
0.0
 30
0.0
 11
-132.2
 21
50.66666666679998
 31
0.0
  0
LINE
  5
2CB3
330
2CA3
100
AcDbEntity
  8
LINIE_KOPF_025
 62
     0
 48
5.0
100
AcDbLine
 10
-88.39999999999987
 20
0.0
 30
0.0
 11
-88.39999999999987
 21
50.66666666679998
 31
0.0
  0
LINE
  5
2CB4
330
2CA3
100
AcDbEntity
  8
LINIE_KOPF_018
 48
5.0
100
AcDbLine
 10
-88.39999999999987
 20
33.59999999999999
 30
0.0
 11
-187.0
 21
33.59999999999999
 31
0.0
  0
LINE
  5
2CB5
330
2CA3
100
AcDbEntity
  8
LINIE_KOPF_018
 48
5.0
100
AcDbLine
 10
-88.39999999999987
 20
29.40000000000001
 30
0.0
 11
-187.0
 21
29.40000000000001
 31
0.0
  0
LINE
  5
2CB6
330
2CA3
100
AcDbEntity
  8
LINIE_KOPF_018
 48
5.0
100
AcDbLine
 10
-88.39999999999987
 20
25.19999999999999
 30
0.0
 11
-187.0
 21
25.19999999999999
 31
0.0
  0
LINE
  5
2CB7
330
2CA3
100
AcDbEntity
  8
LINIE_KOPF_018
 48
5.0
100
AcDbLine
 10
-88.39999999999987
 20
21.0
 30
0.0
 11
-187.0
 21
21.0
 31
0.0
  0
INSERT
  5
2CB8
330
2CA3
100
AcDbEntity
  8
Zeichnungsrahmen
100
AcDbBlockReference
  2
LOGO
 10
-132.2
 20
15.02222222220001
 30
0.0
  0
TEXT
  5
2CB9
330
2CA3
100
AcDbEntity
  8
Text_Kopf_025
 48
5.0
100
AcDbText
 10
-131.6002442970871
 20
16.77025057663749
 30
0.0
 40
2.5
  1
CIS-No:
 41
0.9
  7
ISOCP
100
AcDbText
  0
TEXT
  5
2CBA
330
2CA3
100
AcDbEntity
  8
Text_Kopf_025
 48
5.0
100
AcDbText
 10
-131.5892757972417
 20
26.05433747054241
 30
0.0
 40
2.5
  1
Check
  7
ISOCP
100
AcDbText
  0
TEXT
  5
2CBB
330
2CA3
100
AcDbEntity
  8
Text_Kopf_025
 48
5.0
100
AcDbText
 10
-131.4627862518378
 20
21.88611448544936
 30
0.0
 40
2.5
  1
Norm
  7
ISOCP
100
AcDbText
  0
TEXT
  5
2CBC
330
2CA3
100
AcDbEntity
  8
Text_Kopf_025
 48
5.0
100
AcDbText
 10
-131.5702411438699
 20
30.27740537663982
 30
0.0
 40
2.5
  1
Drawn
  7
ISOCP
100
AcDbText
  0
LINE
  5
2CBD
330
2CA3
100
AcDbEntity
  8
LINIE_KOPF_018
 48
5.0
100
AcDbLine
 10
-132.2
 20
16.80000000000001
 30
0.0
 11
-187.0
 21
16.80000000000001
 31
0.0
  0
LINE
  5
2CBE
330
2CA3
100
AcDbEntity
  8
LINIE_KOPF_018
 48
5.0
100
AcDbLine
 10
-132.2
 20
12.59999999999999
 30
0.0
 11
-187.0
 21
12.59999999999999
 31
0.0
  0
LINE
  5
2CBF
330
2CA3
100
AcDbEntity
  8
LINIE_KOPF_018
 48
5.0
100
AcDbLine
 10
-132.2
 20
8.400000000000005
 30
0.0
 11
-187.0
 21
8.400000000000005
 31
0.0
  0
LINE
  5
2CC0
330
2CA3
100
AcDbEntity
  8
LINIE_KOPF_018
100
AcDbLine
 10
-132.2
 20
4.199999999999988
 30
0.0
 11
-187.0
 21
4.199999999999988
 31
0.0
  0
LINE
  5
2CC1
330
2CA3
100
AcDbEntity
  8
LINIE_KOPF_018
 48
5.0
100
AcDbLine
 10
-179.2
 20
0.0
 30
0.0
 11
-179.2
 21
37.79999999999998
 31
0.0
  0
TEXT
  5
2CC2
330
2CA3
100
AcDbEntity
  8
Text_Kopf_025
 48
5.0
100
AcDbText
 10
-185.3687966424258
 20
1.0
 30
0.0
 40
2.0
  1
Ref.
  7
ISOCP
100
AcDbText
  0
LINE
  5
2CC3
330
2CA3
100
AcDbEntity
  8
LINIE_KOPF_018
 48
5.0
100
AcDbLine
 10
-141.5
 20
0.0
 30
0.0
 11
-141.5
 21
37.79999999999998
 31
0.0
  0
LINE
  5
2CC4
330
2CA3
100
AcDbEntity
  8
LINIE_KOPF_018
 48
5.0
100
AcDbLine
 10
-154.5
 20
0.0
 30
0.0
 11
-154.5
 21
37.79999999999998
 31
0.0
  0
TEXT
  5
2CC5
330
2CA3
100
AcDbEntity
  8
Text_Kopf_025
 48
5.0
100
AcDbText
 10
-171.8512695472504
 20
1.0
 30
0.0
 40
2.0
  1
Revision
  7
ISOCP
100
AcDbText
  0
TEXT
  5
2CC6
330
2CA3
100
AcDbEntity
  8
Text_Kopf_025
 48
5.0
100
AcDbText
 10
-150.6451154738618
 20
1.0
 30
0.0
 40
2.0
  1
Date
  7
ISOCP
100
AcDbText
  0
TEXT
  5
2CC7
330
2CA3
100
AcDbEntity
  8
Text_Kopf_025
 48
5.0
100
AcDbText
 10
-139.9257732404678
 20
1.0
 30
0.0
 40
2.0
  1
Name
  7
ISOCP
100
AcDbText
  0
ATTDEF
  5
2CC8
330
2CA3
100
AcDbEntity
  8
Text_Kopf_05
100
AcDbText
 10
-78.83744572173303
 20
6.241804349592939
 30
0.0
 40
3.5
  1
XXX / Z000 / X
  7
ISOCP
 72
     4
 11
-62.21244572173304
 21
7.991804349592939
 31
0.0
100
AcDbAttributeDefinition
  3
Zeichnungsnummer
  2
ZEICHNUNGSNUMMER
 70
     0
  0
TEXT
  5
2CC9
330
2CA3
100
AcDbEntity
  8
Text_Kopf_025
 48
5.0
100
AcDbText
 10
-86.89999999999987
 20
34.60953972970936
 30
0.0
 40
2.5
  1
Designation
  7
ISOCP
100
AcDbText
  0
TEXT
  5
2CCA
330
2CA3
100
AcDbEntity
  8
Text_Kopf_025
 48
5.0
100
AcDbText
 10
-86.89999999999987
 20
11.7222222222
 30
0.0
 40
2.5
  1
Drawingnumber
  7
ISOCP
100
AcDbText
  0
TEXT
  5
2CCB
330
2CA3
100
AcDbEntity
  8
Text_Kopf_025
 48
5.0
100
AcDbText
 10
-86.89999999999987
 20
1.0915643346205
 30
0.0
 40
2.0
  1
Subst. for.:
  7
ISOCP
100
AcDbText
  0
LINE
  5
2CCC
330
2CA3
100
AcDbEntity
  8
LINIE_KOPF_025
 48
5.0
100
AcDbLine
 10
-122.0
 20
15.02222222220001
 30
0.0
 11
-122.0
 21
38.0
 31
0.0
  0
ATTDEF
  5
2CCD
330
2CA3
100
AcDbEntity
  8
Text_Kopf_035
100
AcDbText
 10
-120.7964234253058
 20
30.45679169681302
 30
0.0
 40
2.5
  1
00.00.00
  7
ISOCP
100
AcDbAttributeDefinition
  3
Bearbeitet am
  2
BEARBEIT.
 70
     0
  0
ATTDEF
  5
2CCE
330
2CA3
100
AcDbEntity
  8
Text_Kopf_035
100
AcDbText
 10
-120.9452748624944
 20
16.71748238786029
 30
0.0
 40
3.2
  1
000.000.0000
  7
ISOCP
100
AcDbAttributeDefinition
  3
CIS-NR.
  2
CIS-NR.
 70
     0
  0
TEXT
  5
2CCF
330
2CA3
100
AcDbEntity
  8
Text_Kopf_025
 48
5.0
100
AcDbText
 10
-117.7999496882596
 20
34.35453450797894
 30
0.0
 40
2.5
  1
Date
  7
ISOCP
100
AcDbText
  0
LINE
  5
2CD0
330
2CA3
100
AcDbEntity
  8
LINIE_KOPF_025
 48
5.0
100
AcDbLine
 10
-106.3999999999998
 20
21.0
 30
0.0
 11
-106.3999999999998
 21
38.0
 31
0.0
  0
TEXT
  5
2CD1
330
2CA3
100
AcDbEntity
  8
Text_Kopf_025
 48
5.0
100
AcDbText
 10
-101.3216890302446
 20
34.35453450797894
 30
0.0
 40
2.5
  1
Name
  7
ISOCP
100
AcDbText
  0
ATTDEF
  5
2CD2
330
2CA3
100
AcDbEntity
  8
Text_Kopf_035
100
AcDbText
 10
-100.8350246961354
 20
30.70603256725525
 30
0.0
 40
2.5
  1
XX
  7
ISOCP
100
AcDbAttributeDefinition
  3
Gezeichnet von
  2
NAME
 70
     0
  0
LINE
  5
2CD3
330
2CA3
100
AcDbEntity
  8
LINIE_KOPF_018
 48
5.0
100
AcDbLine
 10
-44.20000000000004
 20
0.0
 30
0.0
 11
-44.20000000000004
 21
4.222222222200002
 31
0.0
  0
ATTDEF
  5
2CD4
330
2CA3
100
AcDbEntity
  8
Text_Kopf_035
100
AcDbText
 10
-48.98938992769021
 20
19.9412739314357
 30
0.0
 40
3.299999999999999
  1
Kunde
  7
ISOCP
 72
     4
 11
-43.0411399276902
 21
21.53147184836809
 31
0.0
100
AcDbAttributeDefinition
  3
Kunde
  2
KUNDE
 70
     0
  0
TEXT
  5
2CD5
330
2CA3
100
AcDbEntity
  8
Text_Kopf_025
 48
5.0
100
AcDbText
 10
-87.2067819163492
 20
43.36051038699515
 30
0.0
 40
2.5
  1
Material
  7
ISOCP
100
AcDbText
  0
ATTDEF
  5
2CD6
330
2CA3
100
AcDbEntity
  8
Text_Kopf_035
100
AcDbText
 10
-87.00199002675844
 20
38.86358561468353
 30
0.0
 40
2.5
  1
Oberflächenbehandlung
  7
ISOCP
100
AcDbAttributeDefinition
  3
Oberflächenbehandlung
  2
OBERFLÄCHENBEHANDLUNG
 70
     0
  0
TEXT
  5
2CD7
330
2CA3
100
AcDbEntity
  8
Text_Kopf_025
 48
5.0
100
AcDbText
 10
-86.89999999999987
 20
47.56020196081737
 30
0.0
 40
2.0
  1
Scale
  7
ISOCP
100
AcDbText
  0
MTEXT
  5
2CD8
330
2CA3
100
AcDbEntity
  8
Zeichnungsrahmen
 62
     3
100
AcDbMText
 10
-110.2999999999999
 20
48.66666666679998
 30
0.0
 40
2.0
 41
42.0643
 71
     5
 72
     5
  1
Universal tolerances for linear
  7
ISOCP
 73
     1
 44
1.0
  0
MTEXT
  5
2CD9
330
2CA3
100
AcDbEntity
  8
Zeichnungsrahmen
 62
     3
100
AcDbMText
 10
-110.2999999999999
 20
46.16666666679998
 30
0.0
 40
2.0
 41
42.0643
 71
     5
 72
     5
  1
and angular dimensions
  7
ISOCP
 73
     1
 44
1.0
  0
ATTDEF
  5
2CDA
330
2CA3
100
AcDbEntity
  8
Text_Kopf_035
100
AcDbText
 10
-128.0467814128144
 20
39.75078080391995
 30
0.0
 40
2.5
  1
DIN ISO 2768-f
100
AcDbAttributeDefinition
  3
Toleranz
  2
TOLERANZ
 70
     0
  0
ATTDEF
  5
2CDB
330
2CA3
100
AcDbEntity
  8
Text_Kopf_035
100
AcDbText
 10
-73.4991011725906
 20
43.206197595616
 30
0.0
 40
2.5
  1
Werkstoff
  7
ISOCP
100
AcDbAttributeDefinition
  3
Werkstoff
  2
WERKSTOFF
 70
     0
  0
ATTDEF
  5
2CDC
330
2CA3
100
AcDbEntity
  8
Text_Kopf_035
100
AcDbText
 10
-78.31317498569069
 20
47.19670626620905
 30
0.0
 40
2.5
  1
1:1
  7
ISOCP
100
AcDbAttributeDefinition
  3
Maßstab
  2
MAßSTAB
 70
     0
  0
LINE
  5
2CDD
330
2CA3
100
AcDbEntity
  8
LINIE_KOPF_018
 48
5.0
100
AcDbLine
 10
-44.20000000000004
 20
46.54184868986817
 30
0.0
 11
-44.20000000000004
 21
50.66666666679998
 31
0.0
  0
LINE
  5
2CDE
330
2CA3
100
AcDbEntity
  8
LINIE_KOPF_05
 48
5.0
100
AcDbLine
 10
0.0
 20
50.66666666679998
 30
0.0
 11
0.0
 21
0.0
 31
0.0
  0
LINE
  5
2CDF
330
2CA3
100
AcDbEntity
  8
LINIE_KOPF_018
 48
5.0
100
AcDbLine
 10
-13.39187153390071
 20
8.251987814058566
 30
0.0
 11
0.0
 21
8.251987814058566
 31
0.0
  0
TEXT
  5
2CE0
330
2CA3
100
AcDbEntity
  8
Text_Kopf_025
 48
5.0
100
AcDbText
 10
-13.14422962651611
 20
5.444628735436822
 30
0.0
 40
2.0
  1
of
  7
ISOCP
100
AcDbText
  0
LINE
  5
2CE1
330
2CA3
100
AcDbEntity
  8
LINIE_KOPF_018
 48
5.0
100
AcDbLine
 10
-13.39187153390071
 20
4.222222222200002
 30
0.0
 11
-13.39187153390071
 21
15.02222222220001
 31
0.0
  0
ATTDEF
  5
2CE2
330
2CA3
100
AcDbEntity
  8
Text_Kopf_035
100
AcDbText
 10
-7.216272296116585
 20
9.146434568562199
 30
0.0
 40
2.5
  1
1
  7
ISOCP
100
AcDbAttributeDefinition
  3
Blatt
  2
BLATT
 70
     0
  0
TEXT
  5
2CE3
330
2CA3
100
AcDbEntity
  8
Text_Kopf_025
 48
5.0
100
AcDbText
 10
-9.949631094729966
 20
12.49473095610665
 30
0.0
 40
2.0
  1
Page
  7
ISOCP
100
AcDbText
  0
TEXT
  5
2CE4
330
2CA3
100
AcDbEntity
  8
Text_Kopf_025
 48
5.0
100
AcDbText
 10
-3.348166704852474
 20
5.291366304697589
 30
0.0
 40
2.0
  1
Pg
  7
ISOCP
100
AcDbText
  0
ATTDEF
  5
2CE5
330
2CA3
100
AcDbEntity
  8
Text_Kopf_035
100
AcDbText
 10
-7.065975490125538
 20
4.984487294962832
 30
0.0
 40
2.5
  1
1
  7
ISOCP
100
AcDbAttributeDefinition
  3
von
  2
von
 70
     0
  0
ATTDEF
  5
2CE6
330
2CA3
100
AcDbEntity
  8
Text_Kopf_035
100
AcDbText
 10
-32.87301917408581
 20
47.31407334605342
 30
0.0
 40
2.5
  1
0,00
  7
ISOCP
100
AcDbAttributeDefinition
  3
Gewicht
  2
GEWICHT
 70
     0
  0
TEXT
  5
2CE7
330
2CA3
100
AcDbEntity
  8
Text_Kopf_025
 48
5.0
100
AcDbText
 10
-15.47864719705262
 20
47.56020196081737
 30
0.0
 40
2.0
  1
Kg
  7
ISOCP
100
AcDbText
  0
ENDBLK
  5
2CE9
330
2CA3
100
AcDbEntity
  8
0
 62
     7
100
AcDbBlockEnd
  0
BLOCK
  5
5F49
330
5F48
100
AcDbEntity
  8
0
100
AcDbBlockBegin
  2
_FILLED
 70
     0
 10
0.0
 20
0.0
 30
0.0
  3
_FILLED
  1

  0
SOLID
  5
5F4A
330
5F48
100
AcDbEntity
  8
0
  6
ByBlock
 62
     0
100
AcDbTrace
 10
0.0
 20
0.0
 30
0.0
 11
-1.0
 21
0.1428571429
 31
0.0
 12
-1.0
 22
-0.1428571429
 32
0.0
 13
-1.0
 23
-0.1428571429
 33
0.0
  0
ENDBLK
  5
5F4B
330
5F48
100
AcDbEntity
  8
0
  6
ByBlock
 62
     0
100
AcDbBlockEnd
  0
BLOCK
  5
65C4
330
65C3
100
AcDbEntity
  8
0
 62
     5
100
AcDbBlockBegin
  2
Projektionsmethode
 70
     0
 10
0.0
 20
0.0
 30
0.0
  3
Projektionsmethode
  1

  0
LINE
  5
65C5
330
65C3
100
AcDbEntity
  8
Zeichnungskopf
 62
     5
100
AcDbLine
 10
0.0
 20
0.0
 30
0.0
 11
30.0
 21
0.0
 31
0.0
  0
LINE
  5
65C6
330
65C3
100
AcDbEntity
  8
Zeichnungskopf
 62
     5
100
AcDbLine
 10
-0.0000000000000284
 20
15.0
 30
0.0
 11
30.0
 21
15.0
 31
0.0
  0
LINE
  5
65C7
330
65C3
100
AcDbEntity
  8
Zeichnungskopf
 62
     5
100
AcDbLine
 10
0.0
 20
0.0
 30
0.0
 11
0.0
 21
15.0
 31
0.0
  0
LINE
  5
65C8
330
65C3
100
AcDbEntity
  8
Zeichnungskopf
  6
MITTE
 62
     6
 48
0.2
100
AcDbLine
 10
13.5
 20
7.5
 30
0.0
 11
1.5
 21
7.5
 31
0.0
  0
LINE
  5
65C9
330
65C3
100
AcDbEntity
  8
Zeichnungskopf
 62
     5
100
AcDbLine
 10
2.5
 20
4.5
 30
0.0
 11
12.5
 21
2.5
 31
0.0
  0
LINE
  5
65CA
330
65C3
100
AcDbEntity
  8
Zeichnungskopf
 62
     5
100
AcDbLine
 10
2.5
 20
10.5
 30
0.0
 11
12.5
 21
12.5
 31
0.0
  0
LINE
  5
65CB
330
65C3
100
AcDbEntity
  8
Zeichnungskopf
 62
     5
100
AcDbLine
 10
2.5
 20
4.5
 30
0.0
 11
2.5
 21
10.5
 31
0.0
  0
LINE
  5
65CC
330
65C3
100
AcDbEntity
  8
Zeichnungskopf
 62
     5
100
AcDbLine
 10
12.5
 20
2.5
 30
0.0
 11
12.5
 21
12.5
 31
0.0
  0
LINE
  5
65CD
330
65C3
100
AcDbEntity
  8
Zeichnungskopf
 62
     5
100
AcDbLine
 10
30.0
 20
0.0
 30
0.0
 11
30.0
 21
15.0
 31
0.0
  0
LINE
  5
65CE
330
65C3
100
AcDbEntity
  8
Zeichnungskopf
  6
MITTE
 62
     6
 48
0.2
100
AcDbLine
 10
16.5
 20
7.5
 30
0.0
 11
28.5
 21
7.5
 31
0.0
  0
CIRCLE
  5
65CF
330
65C3
100
AcDbEntity
  8
Zeichnungskopf
 62
     5
100
AcDbCircle
 10
22.5
 20
7.5
 30
0.0
 40
3.0
  0
CIRCLE
  5
65D0
330
65C3
100
AcDbEntity
  8
Zeichnungskopf
 62
     5
100
AcDbCircle
 10
22.5
 20
7.5
 30
0.0
 40
5.0
  0
LINE
  5
65D1
330
65C3
100
AcDbEntity
  8
Zeichnungskopf
  6
MITTE
 62
     6
 48
0.2
100
AcDbLine
 10
22.5
 20
1.5
 30
0.0
 11
22.5
 21
13.5
 31
0.0
  0
ENDBLK
  5
65D2
330
65C3
100
AcDbEntity
  8
0
 62
     5
100
AcDbBlockEnd
  0
BLOCK
  5
6855
330
684A
100
AcDbEntity
  8
0
100
AcDbBlockBegin
  2
*D9
 70
     1
 10
0.0
 20
0.0
 30
0.0
  3
*D9
  1

  0
LINE
  5
6966
330
684A
100
AcDbEntity
  8
Körperlinie_s-w
 62
     6
370
    -2
100
AcDbLine
 10
118.1971175038119
 20
98.77512410801353
 30
0.0
 11
124.1030546612933
 21
98.77512410801353
 31
0.0
  0
LINE
  5
6967
330
684A
100
AcDbEntity
  8
Körperlinie_s-w
 62
     6
370
    -2
100
AcDbLine
 10
107.8596175038119
 20
106.3951241080135
 30
0.0
 11
124.1030546612933
 21
106.3951241080135
 31
0.0
  0
LINE
  5
6968
330
684A
100
AcDbEntity
  8
Körperlinie_s-w
 62
     3
370
    -2
100
AcDbLine
 10
123.8530546612933
 20
95.27512410801353
 30
0.0
 11
123.8530546612933
 21
91.77512410801353
 31
0.0
  0
LINE
  5
6969
330
684A
100
AcDbEntity
  8
Körperlinie_s-w
 62
     3
370
    -2
100
AcDbLine
 10
123.8530546612933
 20
109.8951241080135
 30
0.0
 11
123.8530546612933
 21
113.3951241080135
 31
0.0
  0
SOLID
  5
696A
330
684A
100
AcDbEntity
  8
Körperlinie_s-w
 62
     3
100
AcDbTrace
 10
123.2697213279599
 20
95.27512410801353
 30
0.0
 11
124.4363879946266
 21
95.27512410801353
 31
0.0
 12
123.8530546612933
 22
98.77512410801353
 32
0.0
 13
123.8530546612933
 23
98.77512410801353
 33
0.0
  0
SOLID
  5
696B
330
684A
100
AcDbEntity
  8
Körperlinie_s-w
 62
     3
100
AcDbTrace
 10
123.26972132796
 20
109.8951241080135
 30
0.0
 11
124.4363879946266
 21
109.8951241080135
 31
0.0
 12
123.8530546612933
 22
106.3951241080135
 32
0.0
 13
123.8530546612933
 23
106.3951241080135
 33
0.0
  0
MTEXT
  5
696C
330
684A
100
AcDbEntity
  8
Körperlinie_s-w
 62
     5
100
AcDbMText
 10
123.8530546612933
 20
120.3321319820293
 30
0.0
 40
2.5
 41
0.0
 71
     5
 72
     1
  1
\A1;7.62 (0,3)
  7
ISOCP
 11
0.0000000000000001
 21
1.0
 31
0.0
 73
     1
 44
1.0
  0
POINT
  5
696D
330
684A
100
AcDbEntity
  8
DEFPOINTS
 62
     0
100
AcDbPoint
 10
117.6971175038119
 20
98.77512410801353
 30
0.0
  0
POINT
  5
696E
330
684A
100
AcDbEntity
  8
DEFPOINTS
 62
     0
100
AcDbPoint
 10
107.3596175038119
 20
106.3951241080135
 30
0.0
  0
POINT
  5
696F
330
684A
100
AcDbEntity
  8
DEFPOINTS
 62
     0
100
AcDbPoint
 10
123.8530546612933
 20
106.3951241080135
 30
0.0
  0
ENDBLK
  5
6856
330
684A
100
AcDbEntity
  8
0
100
AcDbBlockEnd
  0
BLOCK
  5
686D
330
6862
100
AcDbEntity
  8
0
100
AcDbBlockBegin
  2
*D10
 70
     1
 10
0.0
 20
0.0
 30
0.0
  3
*D10
  1

  0
LINE
  5
6990
330
6862
100
AcDbEntity
  8
Körperlinie_s-w
 62
     6
370
    -2
100
AcDbLine
 10
99.69711750381192
 20
117.2751241080135
 30
0.0
 11
99.69711750381192
 21
158.1558397832
 31
0.0
  0
LINE
  5
6991
330
6862
100
AcDbEntity
  8
Körperlinie_s-w
 62
     6
370
    -2
100
AcDbLine
 10
107.2971175038119
 20
106.9576241080135
 30
0.0
 11
107.2971175038119
 21
158.1558397832
 31
0.0
  0
LINE
  5
6992
330
6862
100
AcDbEntity
  8
Körperlinie_s-w
 62
     3
370
    -2
100
AcDbLine
 10
110.7971175038119
 20
157.9058397832
 30
0.0
 11
114.2971175038119
 21
157.9058397832
 31
0.0
  0
LINE
  5
6993
330
6862
100
AcDbEntity
  8
Körperlinie_s-w
 62
     3
370
    -2
100
AcDbLine
 10
96.19711750381192
 20
157.9058397832
 30
0.0
 11
92.6971175038119
 21
157.9058397832
 31
0.0
  0
SOLID
  5
6994
330
6862
100
AcDbEntity
  8
Körperlinie_s-w
 62
     3
100
AcDbTrace
 10
110.7971175038119
 20
158.4891731165333
 30
0.0
 11
110.7971175038119
 21
157.3225064498666
 31
0.0
 12
107.2971175038119
 22
157.9058397832
 32
0.0
 13
107.2971175038119
 23
157.9058397832
 33
0.0
  0
SOLID
  5
6995
330
6862
100
AcDbEntity
  8
Körperlinie_s-w
 62
     3
100
AcDbTrace
 10
96.19711750381192
 20
158.4891731165333
 30
0.0
 11
96.19711750381192
 21
157.3225064498666
 31
0.0
 12
99.69711750381192
 22
157.9058397832
 32
0.0
 13
99.69711750381192
 23
157.9058397832
 33
0.0
  0
MTEXT
  5
6996
330
6862
100
AcDbEntity
  8
Körperlinie_s-w
 62
     5
100
AcDbMText
 10
86.63510962979616
 20
157.9058397832
 30
0.0
 40
2.5
 41
0.0
 71
     5
 72
     1
  1
\A1;7.6 (0,3)
  7
ISOCP
 73
     1
 44
1.0
  0
POINT
  5
6997
330
6862
100
AcDbEntity
  8
DEFPOINTS
 62
     0
100
AcDbPoint
 10
99.69711750381192
 20
116.7751241080135
 30
0.0
  0
POINT
  5
6998
330
6862
100
AcDbEntity
  8
DEFPOINTS
 62
     0
100
AcDbPoint
 10
107.2971175038119
 20
106.4576241080135
 30
0.0
  0
POINT
  5
6999
330
6862
100
AcDbEntity
  8
DEFPOINTS
 62
     0
100
AcDbPoint
 10
107.2971175038119
 20
157.9058397832
 30
0.0
  0
ENDBLK
  5
686E
330
6862
100
AcDbEntity
  8
0
100
AcDbBlockEnd
  0
BLOCK
  5
6885
330
687A
100
AcDbEntity
  8
0
100
AcDbBlockBegin
  2
*D11
 70
     1
 10
0.0
 20
0.0
 30
0.0
  3
*D11
  1

  0
LINE
  5
699A
330
687A
100
AcDbEntity
  8
Körperlinie_s-w
 62
     6
370
    -2
100
AcDbLine
 10
296.297117503812
 20
106.8951241080135
 30
0.0
 11
296.297117503812
 21
158.1558397832
 31
0.0
  0
LINE
  5
699B
330
687A
100
AcDbEntity
  8
Körperlinie_s-w
 62
     6
370
    -2
100
AcDbLine
 10
303.897117503812
 20
117.2751241080135
 30
0.0
 11
303.897117503812
 21
158.1558397832
 31
0.0
  0
LINE
  5
699C
330
687A
100
AcDbEntity
  8
Körperlinie_s-w
 62
     3
370
    -2
100
AcDbLine
 10
292.7971175038119
 20
157.9058397832
 30
0.0
 11
289.2971175038119
 21
157.9058397832
 31
0.0
  0
LINE
  5
699D
330
687A
100
AcDbEntity
  8
Körperlinie_s-w
 62
     3
370
    -2
100
AcDbLine
 10
307.397117503812
 20
157.9058397832
 30
0.0
 11
310.8971175038119
 21
157.9058397832
 31
0.0
  0
SOLID
  5
699E
330
687A
100
AcDbEntity
  8
Körperlinie_s-w
 62
     3
100
AcDbTrace
 10
292.7971175038119
 20
158.4891731165333
 30
0.0
 11
292.7971175038119
 21
157.3225064498666
 31
0.0
 12
296.297117503812
 22
157.9058397832
 32
0.0
 13
296.297117503812
 23
157.9058397832
 33
0.0
  0
SOLID
  5
699F
330
687A
100
AcDbEntity
  8
Körperlinie_s-w
 62
     3
100
AcDbTrace
 10
307.397117503812
 20
158.4891731165333
 30
0.0
 11
307.397117503812
 21
157.3225064498666
 31
0.0
 12
303.897117503812
 22
157.9058397832
 32
0.0
 13
303.897117503812
 23
157.9058397832
 33
0.0
  0
MTEXT
  5
69A0
330
687A
100
AcDbEntity
  8
Körperlinie_s-w
 62
     5
100
AcDbMText
 10
316.9591253778277
 20
157.9058397832
 30
0.0
 40
2.5
 41
0.0
 71
     5
 72
     1
  1
\A1;7.6 (0,3)
  7
ISOCP
 73
     1
 44
1.0
  0
POINT
  5
69A1
330
687A
100
AcDbEntity
  8
DEFPOINTS
 62
     0
100
AcDbPoint
 10
296.297117503812
 20
106.3951241080135
 30
0.0
  0
POINT
  5
69A2
330
687A
100
AcDbEntity
  8
DEFPOINTS
 62
     0
100
AcDbPoint
 10
303.897117503812
 20
116.7751241080135
 30
0.0
  0
POINT
  5
69A3
330
687A
100
AcDbEntity
  8
DEFPOINTS
 62
     0
100
AcDbPoint
 10
303.897117503812
 20
157.9058397832
 30
0.0
  0
ENDBLK
  5
6886
330
687A
100
AcDbEntity
  8
0
100
AcDbBlockEnd
  0
BLOCK
  5
6893
330
6888
100
AcDbEntity
  8
0
100
AcDbBlockBegin
  2
*D12
 70
     1
 10
0.0
 20
0.0
 30
0.0
  3
*D12
  1

  0
LINE
  5
697A
330
6888
100
AcDbEntity
  8
Körperlinie_s-w
 62
     6
370
    -2
100
AcDbLine
 10
107.8596175038119
 20
234.3951241080135
 30
0.0
 11
123.423047009469
 21
234.3951241080135
 31
0.0
  0
LINE
  5
697B
330
6888
100
AcDbEntity
  8
Körperlinie_s-w
 62
     6
370
    -2
100
AcDbLine
 10
118.1971175038119
 20
242.0151241080136
 30
0.0
 11
123.423047009469
 21
242.0151241080136
 31
0.0
  0
LINE
  5
697C
330
6888
100
AcDbEntity
  8
Körperlinie_s-w
 62
     3
370
    -2
100
AcDbLine
 10
123.173047009469
 20
245.5151241080135
 30
0.0
 11
123.173047009469
 21
249.0151241080135
 31
0.0
  0
LINE
  5
697D
330
6888
100
AcDbEntity
  8
Körperlinie_s-w
 62
     3
370
    -2
100
AcDbLine
 10
123.173047009469
 20
230.8951241080135
 30
0.0
 11
123.173047009469
 21
225.1031557346709
 31
0.0
  0
SOLID
  5
697E
330
6888
100
AcDbEntity
  8
Körperlinie_s-w
 62
     3
100
AcDbTrace
 10
122.5897136761357
 20
245.5151241080135
 30
0.0
 11
123.7563803428023
 21
245.5151241080135
 31
0.0
 12
123.173047009469
 22
242.0151241080136
 32
0.0
 13
123.173047009469
 23
242.0151241080136
 33
0.0
  0
SOLID
  5
697F
330
6888
100
AcDbEntity
  8
Körperlinie_s-w
 62
     3
100
AcDbTrace
 10
122.5897136761357
 20
230.8951241080135
 30
0.0
 11
123.7563803428023
 21
230.8951241080135
 31
0.0
 12
123.173047009469
 22
234.3951241080135
 32
0.0
 13
123.173047009469
 23
234.3951241080135
 33
0.0
  0
MTEXT
  5
6980
330
6888
100
AcDbEntity
  8
Körperlinie_s-w
 62
     5
100
AcDbMText
 10
123.173047009469
 20
218.1661478606552
 30
0.0
 40
2.5
 41
0.0
 71
     5
 72
     1
  1
\A1;7.62 (0,3)
  7
ISOCP
 11
0.0000000000000001
 21
1.0
 31
0.0
 73
     1
 44
1.0
  0
POINT
  5
6981
330
6888
100
AcDbEntity
  8
DEFPOINTS
 62
     0
100
AcDbPoint
 10
107.3596175038119
 20
234.3951241080135
 30
0.0
  0
POINT
  5
6982
330
6888
100
AcDbEntity
  8
DEFPOINTS
 62
     0
100
AcDbPoint
 10
117.6971175038119
 20
242.0151241080136
 30
0.0
  0
POINT
  5
6983
330
6888
100
AcDbEntity
  8
DEFPOINTS
 62
     0
100
AcDbPoint
 10
123.173047009469
 20
242.0151241080136
 30
0.0
  0
ENDBLK
  5
6894
330
6888
100
AcDbEntity
  8
0
100
AcDbBlockEnd
  0
BLOCK
  5
6906
330
68FB
100
AcDbEntity
  8
0
100
AcDbBlockBegin
  2
*D13
 70
     1
 10
0.0
 20
0.0
 30
0.0
  3
*D13
  1

  0
LINE
  5
6948
330
68FB
100
AcDbEntity
  8
Körperlinie_s-w
 62
     6
370
    -2
100
AcDbLine
 10
107.2971175038119
 20
106.4576241080135
 30
0.0
 11
107.2971175038119
 21
158.1558397832
 31
0.0
  0
LINE
  5
6949
330
68FB
100
AcDbEntity
  8
Körperlinie_s-w
 62
     6
370
    -2
100
AcDbLine
 10
296.297117503812
 20
106.8951241080135
 30
0.0
 11
296.297117503812
 21
158.1558397832
 31
0.0
  0
LINE
  5
694A
330
68FB
100
AcDbEntity
  8
Körperlinie_s-w
 62
     3
370
    -2
100
AcDbLine
 10
110.7971175038119
 20
157.9058397832
 30
0.0
 11
182.3729371082937
 21
157.9058397832
 31
0.0
  0
LINE
  5
694B
330
68FB
100
AcDbEntity
  8
Körperlinie_s-w
 62
     3
370
    -2
100
AcDbLine
 10
292.7971175038119
 20
157.9058397832
 30
0.0
 11
221.2212978993301
 21
157.9058397832
 31
0.0
  0
SOLID
  5
694C
330
68FB
100
AcDbEntity
  8
Körperlinie_s-w
 62
     3
100
AcDbTrace
 10
110.7971175038119
 20
158.4891731165333
 30
0.0
 11
110.7971175038119
 21
157.3225064498666
 31
0.0
 12
107.2971175038119
 22
157.9058397832
 32
0.0
 13
107.2971175038119
 23
157.9058397832
 33
0.0
  0
SOLID
  5
694D
330
68FB
100
AcDbEntity
  8
Körperlinie_s-w
 62
     3
100
AcDbTrace
 10
292.7971175038119
 20
158.4891731165333
 30
0.0
 11
292.7971175038119
 21
157.3225064498666
 31
0.0
 12
296.297117503812
 22
157.9058397832
 32
0.0
 13
296.297117503812
 23
157.9058397832
 33
0.0
  0
MTEXT
  5
694E
330
68FB
100
AcDbEntity
  8
Körperlinie_s-w
 62
     5
100
AcDbMText
 10
201.7971175038119
 20
157.9058397832
 30
0.0
 40
2.5
 41
0.0
 71
     5
 72
     1
  1
\A1;cut out 189%%P1  (7,44%%P0,04)
  7
ISOCP
 73
     1
 44
1.0
  0
POINT
  5
694F
330
68FB
100
AcDbEntity
  8
DEFPOINTS
 62
     0
100
AcDbPoint
 10
107.2971175038119
 20
105.9576241080135
 30
0.0
  0
POINT
  5
6950
330
68FB
100
AcDbEntity
  8
DEFPOINTS
 62
     0
100
AcDbPoint
 10
296.297117503812
 20
106.3951241080135
 30
0.0
  0
POINT
  5
6951
330
68FB
100
AcDbEntity
  8
DEFPOINTS
 62
     0
100
AcDbPoint
 10
296.297117503812
 20
157.9058397832
 30
0.0
  0
ENDBLK
  5
6907
330
68FB
100
AcDbEntity
  8
0
100
AcDbBlockEnd
  0
BLOCK
  5
6928
330
691D
100
AcDbEntity
  8
0
100
AcDbBlockBegin
  2
*D14
 70
     1
 10
0.0
 20
0.0
 30
0.0
  3
*D14
  1

  0
LINE
  5
6952
330
691D
100
AcDbEntity
  8
Körperlinie_s-w
 62
     6
370
    -2
100
AcDbLine
 10
294.734617503812
 20
106.3951241080135
 30
0.0
 11
273.0441785992462
 21
106.3951241080135
 31
0.0
  0
LINE
  5
6953
330
691D
100
AcDbEntity
  8
Körperlinie_s-w
 62
     6
370
    -2
100
AcDbLine
 10
295.7971175038119
 20
234.3951241080135
 30
0.0
 11
273.0441785992462
 21
234.3951241080135
 31
0.0
  0
LINE
  5
6954
330
691D
100
AcDbEntity
  8
Körperlinie_s-w
 62
     3
370
    -2
100
AcDbLine
 10
273.2941785992462
 20
109.8951241080135
 30
0.0
 11
273.2941785992462
 21
173.5511351057635
 31
0.0
  0
LINE
  5
6955
330
691D
100
AcDbEntity
  8
Körperlinie_s-w
 62
     3
370
    -2
100
AcDbLine
 10
273.2941785992462
 20
230.8951241080135
 30
0.0
 11
273.2941785992462
 21
212.1407600705642
 31
0.0
  0
SOLID
  5
6956
330
691D
100
AcDbEntity
  8
Körperlinie_s-w
 62
     3
100
AcDbTrace
 10
272.7108452659128
 20
109.8951241080135
 30
0.0
 11
273.8775119325794
 21
109.8951241080135
 31
0.0
 12
273.2941785992462
 22
106.3951241080135
 32
0.0
 13
273.2941785992462
 23
106.3951241080135
 33
0.0
  0
SOLID
  5
6957
330
691D
100
AcDbEntity
  8
Körperlinie_s-w
 62
     3
100
AcDbTrace
 10
272.7108452659129
 20
230.8951241080135
 30
0.0
 11
273.8775119325795
 21
230.8951241080135
 31
0.0
 12
273.2941785992462
 22
234.3951241080135
 32
0.0
 13
273.2941785992462
 23
234.3951241080135
 33
0.0
  0
MTEXT
  5
6958
330
691D
100
AcDbEntity
  8
Körperlinie_s-w
 62
     5
100
AcDbMText
 10
273.2941785992462
 20
192.8459475881639
 30
0.0
 40
2.5
 41
0.0
 71
     5
 72
     1
  1
\A1;cut out 128%%P1  (5,04%%P0,04)
  7
ISOCP
 11
0.0000000000000001
 21
1.0
 31
0.0
 73
     1
 44
1.0
  0
POINT
  5
6959
330
691D
100
AcDbEntity
  8
DEFPOINTS
 62
     0
100
AcDbPoint
 10
295.2346175038119
 20
106.3951241080135
 30
0.0
  0
POINT
  5
695A
330
691D
100
AcDbEntity
  8
DEFPOINTS
 62
     0
100
AcDbPoint
 10
296.297117503812
 20
234.3951241080135
 30
0.0
  0
POINT
  5
695B
330
691D
100
AcDbEntity
  8
DEFPOINTS
 62
     0
100
AcDbPoint
 10
273.2941785992462
 20
234.3951241080135
 30
0.0
  0
ENDBLK
  5
6929
330
691D
100
AcDbEntity
  8
0
100
AcDbBlockEnd
  0
ENDSEC
  0
SECTION
  2
ENTITIES
  0
INSERT
  5
13A2
330
1F
100
AcDbEntity
  8
Änderung1_kein_Plot
100
AcDbBlockReference
 66
     1
  2
Aenderungspositionen1
 10
213.0
 20
0.0000000000000426
 30
0.0
  0
ATTRIB
  5
13A3
330
13A2
100
AcDbEntity
  8
Änderung
100
AcDbText
 10
215.1146095552183
 20
5.179440451053366
 30
0.0
 40
2.5
  1
1.
  7
ISOCP
100
AcDbAttribute
  2
Pos1.
 70
     0
  0
ATTRIB
  5
13A4
330
13A2
100
AcDbEntity
  8
Änderung
100
AcDbText
 10
229.8306021913774
 20
5.092344226035429
 30
0.0
 40
2.5
  1
1111
  7
ISOCP
100
AcDbAttribute
  2
Aendnr1
 70
     0
  0
ATTRIB
  5
13A5
330
13A2
100
AcDbEntity
  8
Änderung
100
AcDbText
 10
245.9310425189308
 20
5.105431021936873
 30
0.0
 40
2.5
  1
00.00.00
  7
ISOCP
100
AcDbAttribute
  2
Dat1
 70
     0
  0
ATTRIB
  5
13A6
330
13A2
100
AcDbEntity
  8
Änderung
100
AcDbText
 10
261.1396686396779
 20
5.112539759865875
 30
0.0
 40
2.5
  1
XX
  7
ISOCP
100
AcDbAttribute
  2
NAME1
 70
     0
  0
SEQEND
  5
13A7
330
13A2
100
AcDbEntity
  8
0
  0
INSERT
  5
13A8
330
1F
100
AcDbEntity
  8
Änderung1_kein_Plot
100
AcDbBlockReference
 66
     1
  2
Aenderungspositionen3
 10
213.0
 20
0.0000000000000426
 30
0.0
  0
ATTRIB
  5
13A9
330
13A8
100
AcDbEntity
  8
Änderung
100
AcDbText
 10
215.0806546681179
 20
13.50457437701634
 30
0.0
 40
2.5
  1
3.
  7
ISOCP
100
AcDbAttribute
  2
Pos3.
 70
     0
  0
ATTRIB
  5
13AA
330
13A8
100
AcDbEntity
  8
Änderung
100
AcDbText
 10
229.796647304277
 20
13.4174781519984
 30
0.0
 40
2.5
  1
3333
  7
ISOCP
100
AcDbAttribute
  2
Aendnr3
 70
     0
  0
ATTRIB
  5
13AB
330
13A8
100
AcDbEntity
  8
Änderung
100
AcDbText
 10
245.8970876318304
 20
13.43056494789985
 30
0.0
 40
2.5
  1
00.00.00
  7
ISOCP
100
AcDbAttribute
  2
Dat3
 70
     0
  0
ATTRIB
  5
13AC
330
13A8
100
AcDbEntity
  8
Änderung
100
AcDbText
 10
261.1057137525774
 20
13.43767368582885
 30
0.0
 40
2.5
  1
XX
  7
ISOCP
100
AcDbAttribute
  2
NAME3
 70
     0
  0
SEQEND
  5
13AD
330
13A8
100
AcDbEntity
  8
0
  0
INSERT
  5
13AE
330
1F
100
AcDbEntity
  8
Änderung1_kein_Plot
100
AcDbBlockReference
 66
     1
  2
Aenderungspositionen2
 10
213.0
 20
0.0000000000000426
 30
0.0
  0
ATTRIB
  5
13AF
330
13AE
100
AcDbEntity
  8
Änderung
100
AcDbText
 10
215.0231140244
 20
9.401662673253369
 30
0.0
 40
2.5
  1
2.
  7
ISOCP
100
AcDbAttribute
  2
Pos2.
 70
     0
  0
ATTRIB
  5
13B0
330
13AE
100
AcDbEntity
  8
Änderung
100
AcDbText
 10
229.7391066605591
 20
9.314566448235432
 30
0.0
 40
2.5
  1
2222
  7
ISOCP
100
AcDbAttribute
  2
Aendnr2
 70
     0
  0
ATTRIB
  5
13B1
330
13AE
100
AcDbEntity
  8
Änderung
100
AcDbText
 10
245.8395469881125
 20
9.327653244136875
 30
0.0
 40
2.5
  1
00.00.00
  7
ISOCP
100
AcDbAttribute
  2
Dat2
 70
     0
  0
ATTRIB
  5
13B2
330
13AE
100
AcDbEntity
  8
Änderung
100
AcDbText
 10
261.0481731088596
 20
9.334761982065877
 30
0.0
 40
2.5
  1
XX
  7
ISOCP
100
AcDbAttribute
  2
NAME2
 70
     0
  0
SEQEND
  5
13B3
330
13AE
100
AcDbEntity
  8
0
  0
INSERT
  5
1E05
330
1F
100
AcDbEntity
  8
Zeichnungsrahmen
100
AcDbBlockReference
  2
ISO A3 Rahmen
 10
400.0
 20
0.0000000000001137
 30
0.0
  0
INSERT
  5
2D06
330
1F
100
AcDbEntity
  8
Körperlinie_s-w
 62
     7
100
AcDbBlockReference
 66
     1
  2
Zeichnungskopf Lauer Englisch
 10
400.0
 20
0.0000000000001137
 30
0.0
  0
ATTRIB
  5
2D07
330
2D06
100
AcDbEntity
  8
Text_Kopf_05
100
AcDbText
 10
339.5027434362291
 20
32.00076496070129
 30
0.0
 40
4.2
  1
Cut out dimensions 
  7
ISOCP
 72
     4
 11
363.8732434362291
 21
34.09362291481193
 31
0.0
100
AcDbAttribute
  2
PROJEKT
 70
     0
  0
ATTRIB
  5
2D08
330
2D06
100
AcDbEntity
  8
Text_Kopf_05
100
AcDbText
 10
354.89445228661
 20
27.59359176725677
 30
0.0
 40
3.5
  1
7" Touch
  7
ISOCP
 72
     4
 11
364.0578787383483
 21
29.28016531551839
 31
0.0
100
AcDbAttribute
  2
BENENNUNG0
 70
     0
  0
ATTRIB
  5
2D09
330
2D06
100
AcDbEntity
  8
Text_Kopf_05
100
AcDbText
 10
357.1521461043155
 20
25.79625526976071
 30
0.0
 40
3.5
  1

  7
ISOCP
 72
     4
 11
357.1521461043155
 21
25.79625526976071
 31
0.0
100
AcDbAttribute
  2
BENENNUNG1
 70
     0
  0
ATTRIB
  5
2D0A
330
2D06
100
AcDbEntity
  8
Text_Kopf_035
100
AcDbText
 10
356.8046279991666
 20
17.01409394404183
 30
0.0
 40
2.8
  1

  7
ISOCP
 72
     4
 11
356.8046279991666
 21
17.01409394404183
 31
0.0
100
AcDbAttribute
  2
ANSICHTEN
 70
     0
  0
ATTRIB
  5
2D0B
330
2D06
100
AcDbEntity
  8
Text_Kopf_05
100
AcDbText
 10
318.5375542782669
 20
6.313602746630392
 30
0.0
 40
3.5
  1
EZHMI-Z1141-005A
  7
ISOCP
 72
     4
 11
337.7875542782669
 21
7.991804349593053
 31
0.0
100
AcDbAttribute
  2
ZEICHNUNGSNUMMER
 70
     0
  0
ATTRIB
  5
2D0C
330
2D06
100
AcDbEntity
  8
Text_Kopf_035
100
AcDbText
 10
279.8147459102111
 20
30.20680004349344
 30
0.0
 40
2.5
  1
25.10.12
  7
ISOCP
100
AcDbAttribute
  2
BEARBEIT.
 70
     0
  0
ATTRIB
  5
2D0D
330
2D06
100
AcDbEntity
  8
Text_Kopf_035
100
AcDbText
 10
279.0547251375055
 20
16.7174823878604
 30
0.0
 40
3.2
  1

  7
ISOCP
100
AcDbAttribute
  2
CIS-NR.
 70
     0
  0
ATTRIB
  5
2D0E
330
2D06
100
AcDbEntity
  8
Text_Kopf_035
100
AcDbText
 10
295.6273626659104
 20
30.31930459938735
 30
0.0
 40
2.5
  1
H.Böhmler
  7
ISOCP
100
AcDbAttribute
  2
NAME
 70
     0
  0
ATTRIB
  5
2D0F
330
2D06
100
AcDbEntity
  8
Text_Kopf_035
100
AcDbText
 10
356.9588600723098
 20
21.5314718483682
 30
0.0
 40
3.299999999999999
  1

  7
ISOCP
 72
     4
 11
356.9588600723098
 21
21.5314718483682
 31
0.0
100
AcDbAttribute
  2
KUNDE
 70
     0
  0
ATTRIB
  5
2D10
330
2D06
100
AcDbEntity
  8
Text_Kopf_035
100
AcDbText
 10
312.9980099732415
 20
38.86358561468365
 30
0.0
 40
2.5
  1

  7
ISOCP
100
AcDbAttribute
  2
OBERFLÄCHENBEHANDLUNG
 70
     0
  0
ATTRIB
  5
2D11
330
2D06
100
AcDbEntity
  8
Text_Kopf_035
100
AcDbText
 10
271.9532185871856
 20
39.75078080392007
 30
0.0
 40
2.5
  1

100
AcDbAttribute
  2
TOLERANZ
 70
     0
  0
ATTRIB
  5
2D12
330
2D06
100
AcDbEntity
  8
Text_Kopf_035
100
AcDbText
 10
326.5008988274094
 20
43.20619759561611
 30
0.0
 40
2.5
  1

  7
ISOCP
100
AcDbAttribute
  2
WERKSTOFF
 70
     0
  0
ATTRIB
  5
2D13
330
2D06
100
AcDbEntity
  8
Text_Kopf_035
100
AcDbText
 10
321.6868250143093
 20
47.19670626620916
 30
0.0
 40
2.5
  1
1:1
  7
ISOCP
100
AcDbAttribute
  2
MAßSTAB
 70
     0
  0
ATTRIB
  5
2D14
330
2D06
100
AcDbEntity
  8
Text_Kopf_035
100
AcDbText
 10
392.7837277038834
 20
9.146434568562312
 30
0.0
 40
2.5
  1
1
  7
ISOCP
100
AcDbAttribute
  2
BLATT
 70
     0
  0
ATTRIB
  5
2D15
330
2D06
100
AcDbEntity
  8
Text_Kopf_035
100
AcDbText
 10
392.9340245098745
 20
4.984487294962946
 30
0.0
 40
2.5
  1
1
  7
ISOCP
100
AcDbAttribute
  2
von
 70
     0
  0
ATTRIB
  5
2D16
330
2D06
100
AcDbEntity
  8
Text_Kopf_035
100
AcDbText
 10
367.1269808259142
 20
47.31407334605353
 30
0.0
 40
2.5
  1

  7
ISOCP
100
AcDbAttribute
  2
GEWICHT
 70
     0
  0
SEQEND
  5
2D17
330
2D06
100
AcDbEntity
  8
Körperlinie_s-w
 62
     7
  0
INSERT
  5
65DD
330
1F
100
AcDbEntity
  8
Zeichnungskopf
 62
     5
100
AcDbBlockReference
  2
Projektionsmethode
 10
180.0
 20
3.000000000000056
 30
0.0
  0
LINE
  5
676F
330
1F
100
AcDbEntity
  8
0
  6
Continuous
 62
     7
100
AcDbLine
 10
99.69711750381192
 20
224.0151241080135
 30
0.0
 11
99.69711750381192
 21
116.7751241080135
 31
0.0
  0
LINE
  5
6770
330
1F
100
AcDbEntity
  8
0
  6
Continuous
 62
     7
100
AcDbLine
 10
107.2971175038119
 20
106.3951241080135
 30
0.0
 11
107.2971175038119
 21
234.3951241080135
 31
0.0
  0
LINE
  5
6771
330
1F
100
AcDbEntity
  8
0
  6
Continuous
 62
     7
100
AcDbLine
 10
117.6971175038119
 20
98.77512410801353
 30
0.0
 11
285.8971175038119
 21
98.77512410801353
 31
0.0
  0
LINE
  5
6772
330
1F
100
AcDbEntity
  8
0
  6
Continuous
 62
     7
100
AcDbLine
 10
296.297117503812
 20
106.3951241080135
 30
0.0
 11
107.2971175038119
 21
106.3951241080135
 31
0.0
  0
LINE
  5
6773
330
1F
100
AcDbEntity
  8
0
  6
Continuous
 62
     7
100
AcDbLine
 10
201.7971175038119
 20
170.3951241080135
 30
0.0
 11
201.7971175038119
 21
166.3950241080135
 31
0.0
  0
LINE
  5
6774
330
1F
100
AcDbEntity
  8
0
  6
Continuous
 62
     7
100
AcDbLine
 10
201.7971175038119
 20
170.3951241080135
 30
0.0
 11
201.7971175038119
 21
174.3952241080135
 31
0.0
  0
LINE
  5
6775
330
1F
100
AcDbEntity
  8
0
  6
Continuous
 62
     7
100
AcDbLine
 10
201.7971175038119
 20
170.3951241080135
 30
0.0
 11
197.7970175038119
 21
170.3951241080135
 31
0.0
  0
LINE
  5
6776
330
1F
100
AcDbEntity
  8
0
  6
Continuous
 62
     7
100
AcDbLine
 10
201.7971175038119
 20
170.3951241080135
 30
0.0
 11
205.7972175038119
 21
170.3951241080135
 31
0.0
  0
LINE
  5
6777
330
1F
100
AcDbEntity
  8
0
  6
Continuous
 62
     7
100
AcDbLine
 10
107.2971175038119
 20
234.3951241080135
 30
0.0
 11
296.297117503812
 21
234.3951241080135
 31
0.0
  0
LINE
  5
6778
330
1F
100
AcDbEntity
  8
0
  6
Continuous
 62
     7
100
AcDbLine
 10
285.8971175038119
 20
242.0151241080136
 30
0.0
 11
117.6971175038119
 21
242.0151241080136
 31
0.0
  0
LINE
  5
6779
330
1F
100
AcDbEntity
  8
0
  6
Continuous
 62
     7
100
AcDbLine
 10
296.297117503812
 20
234.3951241080135
 30
0.0
 11
296.297117503812
 21
106.3951241080135
 31
0.0
  0
LINE
  5
677A
330
1F
100
AcDbEntity
  8
0
  6
Continuous
 62
     7
100
AcDbLine
 10
303.897117503812
 20
116.7751241080135
 30
0.0
 11
303.897117503812
 21
224.0151241080135
 31
0.0
  0
ARC
  5
677B
330
1F
100
AcDbEntity
  8
0
  6
Continuous
 62
     7
100
AcDbCircle
 10
117.6971175038119
 20
116.7751241080135
 30
0.0
 40
18.0
100
AcDbArc
 50
180.0
 51
270.0
  0
ARC
  5
677C
330
1F
100
AcDbEntity
  8
0
  6
Continuous
 62
     7
100
AcDbCircle
 10
285.8971175038119
 20
116.7751241080135
 30
0.0
 40
18.0
100
AcDbArc
 50
270.0
 51
0.0
  0
ARC
  5
677D
330
1F
100
AcDbEntity
  8
0
  6
Continuous
 62
     7
100
AcDbCircle
 10
285.8971175038119
 20
224.0151241080135
 30
0.0
 40
18.0
100
AcDbArc
 50
0.0
 51
90.0
  0
ARC
  5
677E
330
1F
100
AcDbEntity
  8
0
  6
Continuous
 62
     7
100
AcDbCircle
 10
117.6971175038119
 20
224.0151241080135
 30
0.0
 40
18.0
100
AcDbArc
 50
90.0
 51
180.0
  0
MTEXT
  5
6840
330
1F
100
AcDbEntity
  8
0
  6
Continuous
 62
     5
100
AcDbMText
 10
201.7971175038119
 20
227.199380031417
 30
0.0
 40
3.5
 41
76.5
 71
     2
 72
     1
  1
{\fArial|b0|i0|c0|p34;PANEL CUT OUT FOR 7"\P TOUCH\PFront view\PSCALE 1:1}
 73
     1
 44
0.9
1001
ACAD
1000
ACAD_MTEXT_DEFINED_HEIGHT_BEGIN
1070
    46
1040
0.0
1000
ACAD_MTEXT_DEFINED_HEIGHT_END
  0
MTEXT
  5
6841
330
1F
100
AcDbEntity
  8
0
  6
Continuous
 62
     5
100
AcDbMText
 10
201.7971175038119
 20
179.4049444675953
 30
0.0
 40
3.5
 41
47.32479205539218
 71
     5
 72
     1
  1
{\fArial|b0|i0|c0|p34;Terminal center}
 73
     1
 44
0.9
1001
ACAD
1000
ACAD_MTEXT_DEFINED_HEIGHT_BEGIN
1070
    46
1040
0.0
1000
ACAD_MTEXT_DEFINED_HEIGHT_END
  0
LEADER
  5
6842
330
1F
100
AcDbEntity
  8
Körperlinie_s-w
100
AcDbLeader
  3
LAUER_STANDARD
 73
     0
 40
2.540927694406548
 41
24.61971350613916
 76
     3
 10
201.7656762646819
 20
242.9215056530102
 30
0.0
 10
201.7656762646819
 20
253.691138882425
 30
0.0
 10
206.6323173418689
 20
253.691138882425
 30
0.0
340
6843
213
0.0
223
-1.25
233
0.0
1001
ACAD
1000
DSTYLE
1002
{
1070
   147
1040
0.625
1070
    77
1070
     0
1002
}
  0
MTEXT
  5
6843
102
{ACAD_REACTORS
330
6842
102
}
330
1F
100
AcDbEntity
  8
Körperlinie_s-w
 62
     5
100
AcDbMText
 10
207.2573173418689
 20
254.941138882425
 30
0.0
 40
2.5
 41
0.0
 71
     1
 72
     1
  1
{\fArial|b0|i0|c0|p34;Terminal outline}
  7
ISOCP
 73
     1
 44
1.0
  0
LEADER
  5
6844
330
1F
100
AcDbEntity
  8
Körperlinie_s-w
100
AcDbLeader
  3
LAUER_STANDARD
 73
     0
 40
2.585266030013642
 41
11.06070941336971
 76
     3
 10
201.7420995695593
 20
107.0808057002113
 30
0.0
 10
201.7420995695593
 20
117.8504389296261
 30
0.0
 10
206.6087406467462
 20
117.8504389296261
 30
0.0
340
6845
213
0.0
223
-1.25
233
0.0
1001
ACAD
1000
DSTYLE
1002
{
1070
   147
1040
0.625
1070
    77
1070
     0
1002
}
  0
MTEXT
  5
6845
102
{ACAD_REACTORS
330
6844
102
}
330
1F
100
AcDbEntity
  8
Körperlinie_s-w
 62
     5
100
AcDbMText
 10
207.2337406467462
 20
119.100438929626
 30
0.0
 40
2.5
 41
0.0
 71
     1
 72
     1
  1
{\fArial|b0|i0|c0|p34;Cut out}
  7
ISOCP
 73
     1
 44
1.0
1001
ACAD
1000
ACAD_MTEXT_DEFINED_HEIGHT_BEGIN
1070
    46
1040
0.0
1000
ACAD_MTEXT_DEFINED_HEIGHT_END
  0
DIMENSION
  5
6849
330
1F
100
AcDbEntity
  8
Körperlinie_s-w
100
AcDbDimension
  2
*D9
 10
123.8530546612933
 20
106.3951241080135
 30
0.0
 11
123.8530546612933
 21
120.3321319820293
 31
0.0
 70
   160
  1
<> (0,3)
 71
     5
 42
7.620000000000004
  3
LAUER_STANDARD
100
AcDbAlignedDimension
 13
117.6971175038119
 23
98.77512410801353
 33
0.0
 14
107.3596175038119
 24
106.3951241080135
 34
0.0
 50
90.0
100
AcDbRotatedDimension
1001
ACAD
1000
DSTYLE
1002
{
1070
   271
1070
     2
1002
}
  0
DIMENSION
  5
6861
330
1F
100
AcDbEntity
  8
Körperlinie_s-w
100
AcDbDimension
  2
*D10
 10
107.2971175038119
 20
157.9058397832
 30
0.0
 11
86.63510962979616
 21
157.9058397832
 31
0.0
 70
   160
  1
<> (0,3)
 71
     5
 42
7.599999999999994
  3
LAUER_STANDARD
100
AcDbAlignedDimension
 13
99.69711750381192
 23
116.7751241080135
 33
0.0
 14
107.2971175038119
 24
106.4576241080135
 34
0.0
100
AcDbRotatedDimension
  0
DIMENSION
  5
6879
330
1F
100
AcDbEntity
  8
Körperlinie_s-w
100
AcDbDimension
  2
*D11
 10
303.897117503812
 20
157.9058397832
 30
0.0
 11
316.9591253778277
 21
157.9058397832
 31
0.0
 70
   160
  1
<> (0,3)
 71
     5
 42
7.600000000000022
  3
LAUER_STANDARD
100
AcDbAlignedDimension
 13
296.297117503812
 23
106.3951241080135
 33
0.0
 14
303.897117503812
 24
116.7751241080135
 34
0.0
100
AcDbRotatedDimension
  0
DIMENSION
  5
6887
330
1F
100
AcDbEntity
  8
Körperlinie_s-w
100
AcDbDimension
  2
*D12
 10
123.173047009469
 20
242.0151241080136
 30
0.0
 11
123.173047009469
 21
218.1661478606552
 31
0.0
 70
   160
  1
<> (0,3)
 71
     5
 42
7.620000000000004
  3
LAUER_STANDARD
100
AcDbAlignedDimension
 13
107.3596175038119
 23
234.3951241080135
 33
0.0
 14
117.6971175038119
 24
242.0151241080136
 34
0.0
 50
90.0
100
AcDbRotatedDimension
1001
ACAD
1000
DSTYLE
1002
{
1070
   271
1070
     2
1002
}
  0
DIMENSION
  5
68FA
330
1F
100
AcDbEntity
  8
Körperlinie_s-w
100
AcDbDimension
  2
*D13
 10
296.297117503812
 20
157.9058397832
 30
0.0
 11
201.7971175038119
 21
157.9058397832
 31
0.0
 70
   160
  1
cut out 189%%P1  (7,44%%P0,04)
 71
     5
 42
189.0
  3
LAUER_STANDARD
100
AcDbAlignedDimension
 13
107.2971175038119
 23
105.9576241080135
 33
0.0
 14
296.297117503812
 24
106.3951241080135
 34
0.0
100
AcDbRotatedDimension
  0
DIMENSION
  5
691C
330
1F
100
AcDbEntity
  8
Körperlinie_s-w
100
AcDbDimension
  2
*D14
 10
273.2941785992462
 20
234.3951241080135
 30
0.0
 11
273.2941785992462
 21
192.8459475881639
 31
0.0
 70
   160
  1
cut out 128%%P1  (5,04%%P0,04)
 71
     5
 42
128.0
  3
LAUER_STANDARD
100
AcDbAlignedDimension
 13
295.2346175038119
 23
106.3951241080135
 33
0.0
 14
296.297117503812
 24
234.3951241080135
 34
0.0
 50
90.0
100
AcDbRotatedDimension
  0
VIEWPORT
  5
50
330
23
100
AcDbEntity
 67
     1
  8
0
100
AcDbViewport
 10
98.98591613769532
 20
311.5629045408784
 30
0.0
 40
541.4832169644486
 41
652.0949905011293
 68
     1
 69
     1
 12
98.98591613769532
 22
311.5629045408784
 13
0.0
 23
0.0
 14
10.0
 24
10.0
 15
10.0
 25
10.0
 16
0.0
 26
0.0
 36
1.0
 17
0.0
 27
0.0
 37
0.0
 42
50.0
 43
0.0
 44
0.0
 45
652.0949905011293
 50
0.0
 51
0.0
 72
   100
 90
    32800
  1

281
     0
 71
     1
 74
     0
110
0.0
120
0.0
130
0.0
111
1.0
121
0.0
131
0.0
112
0.0
122
1.0
132
0.0
 79
     0
146
0.0
170
     0
  0
VIEWPORT
  5
52
330
23
100
AcDbEntity
 67
     1
  8
0
100
AcDbViewport
 10
98.09691238403321
 20
141.9542601108551
 30
0.0
 40
156.9550598144531
 41
227.1268161773682
 68
     2
 69
     2
 12
98.0
 22
141.75
 13
0.0
 23
0.0
 14
10.0
 24
10.0
 15
10.0
 25
10.0
 16
0.0
 26
0.0
 36
1.0
 17
0.0
 27
0.0
 37
0.0
 42
50.0
 43
0.0
 44
0.0
 45
290.4079930659185
 50
0.0
 51
0.0
 72
   100
 90
    33376
  1

281
     0
 71
     1
 74
     0
110
0.0
120
0.0
130
0.0
111
1.0
121
0.0
131
0.0
112
0.0
122
1.0
132
0.0
 79
     0
146
0.0
170
     0
  0
ENDSEC
  0
SECTION
  2
OBJECTS
  0
DICTIONARY
  5
C
330
0
100
AcDbDictionary
281
     1
  3
ACAD_COLOR
350
2D24
  3
ACAD_GROUP
350
D
  3
ACAD_LAYOUT
350
1A
  3
ACAD_MATERIAL
350
2D23
  3
ACAD_MLINESTYLE
350
17
  3
ACAD_PLOTSETTINGS
350
19
  3
ACAD_PLOTSTYLENAME
350
E
  3
ACAD_TABLESTYLE
350
2D25
  3
AcadDim
350
D2E
  3
AcDbVariableDictionary
350
D21
  0
DICTIONARY
  5
65D4
330
2
100
AcDbDictionary
280
     1
281
     1
  3
ACAD_LAYERSTATES
360
65D5
  0
DICTIONARY
  5
73B7
330
1F
100
AcDbDictionary
280
     1
281
     1
  3
ACAD_SORTENTS
360
73B8
  0
DICTIONARY
  5
2D24
102
{ACAD_REACTORS
330
C
102
}
330
C
100
AcDbDictionary
281
     1
  0
DICTIONARY
  5
D
102
{ACAD_REACTORS
330
C
102
}
330
C
100
AcDbDictionary
281
     1
  0
DICTIONARY
  5
1A
102
{ACAD_REACTORS
330
C
102
}
330
C
100
AcDbDictionary
281
     1
  3
Layout1
350
1E
  3
Layout2
350
26
  3
Model
350
22
  0
DICTIONARY
  5
2D23
102
{ACAD_REACTORS
330
C
102
}
330
C
100
AcDbDictionary
281
     1
  0
DICTIONARY
  5
17
102
{ACAD_REACTORS
330
C
102
}
330
C
100
AcDbDictionary
281
     1
  3
Standard
350
18
  0
DICTIONARY
  5
19
102
{ACAD_REACTORS
330
C
102
}
330
C
100
AcDbDictionary
281
     1
  3
Übergröße A3 quer
350
5F28
  0
ACDBDICTIONARYWDFLT
  5
E
102
{ACAD_REACTORS
330
C
102
}
330
C
100
AcDbDictionary
281
     1
  3
Normal
350
F
100
AcDbDictionaryWithDefault
340
F
  0
DICTIONARY
  5
2D25
102
{ACAD_REACTORS
330
C
102
}
330
C
100
AcDbDictionary
281
     1
  3
Standard
350
2D26
  3
Standard1
350
5FE1
  0
XRECORD
  5
D2E
102
{ACAD_REACTORS
330
C
102
}
330
C
100
AcDbXrecord
280
     1
 90
   990106
  3

 60
     0
 61
     0
 62
     1
 63
     3
 64
     0
 65
     0
 66
     0
 67
     3
 68
     1
 69
     0
 70
     0
 71
     0
 72
     0
 40
0.0
170
     0
340
0
  0
DICTIONARY
  5
D21
102
{ACAD_REACTORS
330
C
102
}
330
C
100
AcDbDictionary
281
     1
  3
CTABLESTYLE
350
5EDF
  3
DIMASSOC
350
1ED3
  3
SORTENTS
350
D22
  0
DICTIONARY
  5
65D5
102
{ACAD_REACTORS
330
65D4
102
}
330
65D4
100
AcDbDictionary
281
     1
  0
SORTENTSTABLE
  5
73B8
102
{ACAD_REACTORS
330
73B7
102
}
330
73B7
100
AcDbSortentsTable
330
1F
331
6842
  5
6842
331
6773
  5
6773
331
6841
  5
6841
331
6772
  5
6772
331
6840
  5
6840
331
6771
  5
6771
331
6770
  5
6770
331
676F
  5
676F
331
13A8
  5
13A8
331
677E
  5
677E
331
677D
  5
677D
331
68FA
  5
68FA
331
677C
  5
677C
331
677B
  5
677B
331
6879
  5
6879
331
6849
  5
6849
331
677A
  5
677A
331
6861
  5
6861
331
6779
  5
6779
331
65DD
  5
65DD
331
2D06
  5
2D06
331
6778
  5
6778
331
6887
  5
6887
331
13A2
  5
13A2
331
6777
  5
6777
331
691C
  5
691C
331
6845
  5
6845
331
6776
  5
6776
331
6844
  5
6844
331
6775
  5
6775
331
13AE
  5
13AE
331
6843
  5
6843
331
6774
  5
6774
331
1E05
  5
1E05
  0
LAYOUT
  5
1E
102
{ACAD_REACTORS
330
1A
102
}
330
1A
100
AcDbPlotSettings
  1

  2
HP LaserJet 4V
  4
A4
  6

 40
6.043083190917968
 41
5.873736858367919
 42
7.821090698242187
 43
7.14373779296875
 44
210.0579986572266
 45
296.9259948730469
 46
0.0
 47
0.0
 48
0.0
 49
0.0
140
0.0
141
0.0
142
1.0
143
1.0
 70
   688
 72
     1
 73
     0
 74
     5
  7
aclt_Lauer.ctb
 75
    16
147
1.0
 76
     0
 77
     2
 78
   300
148
0.0
149
0.0
100
AcDbLayout
  1
Layout1
 70
     1
 71
     1
 10
-6.043083190917968
 20
-5.873736858367919
 11
204.0149154663086
 21
291.0522580146789
 12
0.0
 22
0.0
 32
0.0
 14
19.61938247680663
 24
28.39085202217103
 34
0.0
 15
176.5744422912598
 25
255.5176681995392
 35
0.0
146
0.0
 13
0.0
 23
0.0
 33
0.0
 16
1.0
 26
0.0
 36
0.0
 17
0.0
 27
1.0
 37
0.0
 76
     0
330
1B
331
44
  0
LAYOUT
  5
26
102
{ACAD_REACTORS
330
1A
102
}
330
1A
100
AcDbPlotSettings
  1

  2
HP LaserJet 4V
  4
A4
  6

 40
6.043083190917968
 41
5.873736858367919
 42
7.821090698242187
 43
7.14373779296875
 44
210.0579986572266
 45
296.9259948730469
 46
0.0
 47
0.0
 48
0.0
 49
0.0
140
0.0
141
0.0
142
1.0
143
1.0
 70
   688
 72
     1
 73
     0
 74
     5
  7
aclt_Lauer.ctb
 75
    16
147
1.0
 76
     0
 77
     2
 78
   300
148
0.0
149
0.0
100
AcDbLayout
  1
Layout2
 70
     1
 71
     2
 10
-6.043083190917968
 20
-5.873736858367919
 11
204.0149154663086
 21
291.0522580146789
 12
0.0
 22
0.0
 32
0.0
 14
19.61938247680663
 24
28.39085202217103
 34
0.0
 15
176.5744422912598
 25
255.5176681995392
 35
0.0
146
0.0
 13
0.0
 23
0.0
 33
0.0
 16
1.0
 26
0.0
 36
0.0
 17
0.0
 27
1.0
 37
0.0
 76
     0
330
23
331
50
  0
LAYOUT
  5
22
102
{ACAD_REACTORS
330
1A
102
}
330
1A
100
AcDbPlotSettings
  1
Übergröße A3 quer
  2
\\NT-LAUER1\EWH-MP C3000
  4
A3
  6

 40
6.805083274841308
 41
5.027085304260253
 42
7.228424072265625
 43
5.027069091796875
 44
296.9259948730469
 45
419.9466552734374
 46
0.4462437629699139
 47
0.4462504386902424
 48
-10.00000000000023
 49
-9.999999999999886
140
410.0
141
286.9999999999999
142
1.0
143
1.0
 70
 11956
 72
     1
 73
     1
 74
     2
  7
aclt_Lauer.ctb
 75
    16
147
1.0
 76
     0
 77
     2
 78
   300
148
4.499999999999886
149
4.5
100
AcDbLayout
  1
Model
 70
     1
 71
     0
 10
0.0
 20
0.0
 11
12.0
 21
9.0
 12
0.0
 22
0.0
 32
0.0
 14
0.0
 24
0.0
 34
0.0
 15
0.0
 25
0.0
 35
0.0
146
0.0
 13
0.0
 23
0.0
 33
0.0
 16
1.0
 26
0.0
 36
0.0
 17
0.0
 27
1.0
 37
0.0
 76
     0
330
1F
1001
ACAD_PSEXT
1000
\\NT-LAUER1\EWH-MP C3000
1000
RICOH Aficio MP C3000 PCL 5c
1000
EG-Entwicklung Hardware
1000

1070
     0
  0
MLINESTYLE
  5
18
102
{ACAD_REACTORS
330
17
102
}
330
17
100
AcDbMlineStyle
  2
STANDARD
 70
     0
  3

 62
   256
 51
90.0
 52
90.0
 71
     2
 49
0.5
 62
   256
  6
BYLAYER
 49
-0.5
 62
   256
  6
BYLAYER
  0
PLOTSETTINGS
  5
5F28
102
{ACAD_REACTORS
330
19
102
}
330
19
100
AcDbPlotSettings
  1
Übergröße A3 quer
  2
\\NT-LAUER1\EWH-MP C3000
  4
A3
  6

 40
6.805083274841308
 41
5.027085304260253
 42
7.228424072265625
 43
5.027069091796875
 44
296.9259948730469
 45
419.9466552734374
 46
0.4462437629699139
 47
0.4462504386902424
 48
-10.00000000000023
 49
-9.999999999999886
140
410.0
141
286.9999999999999
142
1.0
143
1.0
 70
 11956
 72
     1
 73
     1
 74
     2
  7
aclt_Lauer.ctb
 75
    16
147
1.0
 76
     0
 77
     2
 78
   300
148
4.499999999999886
149
4.5
1001
ACAD_PSEXT
1000
\\NT-LAUER1\EWH-MP C3000
1000
RICOH Aficio MP C3000 PCL 5c
1000
EG-Entwicklung Hardware
1000

1070
     0
  0
ACDBPLACEHOLDER
  5
F
102
{ACAD_REACTORS
330
E
102
}
330
E
  0
TABLESTYLE
  5
2D26
102
{ACAD_REACTORS
330
2D25
102
}
330
2D25
100
AcDbTableStyle
  3
Standard
 70
     0
 71
     8
 40
1.5
 41
1.5
280
     0
281
     0
  7
Standard
140
4.5
170
     2
 62
     0
 63
     7
283
     0
274
    -2
284
     1
 64
     0
275
    -2
285
     1
 65
     0
276
    -2
286
     1
 66
     0
277
    -2
287
     1
 67
     0
278
    -2
288
     1
 68
     0
279
    -2
289
     1
 69
     0
  7
Standard
140
6.0
170
     5
 62
     0
 63
     7
283
     0
274
    -2
284
     1
 64
     0
275
    -2
285
     1
 65
     0
276
    -2
286
     1
 66
     0
277
    -2
287
     1
 67
     0
278
    -2
288
     1
 68
     0
279
    -2
289
     1
 69
     0
  7
Standard
140
4.5
170
     5
 62
     0
 63
     7
283
     0
274
    -2
284
     1
 64
     0
275
    -2
285
     1
 65
     0
276
    -2
286
     1
 66
     0
277
    -2
287
     1
 67
     0
278
    -2
288
     1
 68
     0
279
    -2
289
     1
 69
     0
  0
TABLESTYLE
  5
5FE1
102
{ACAD_XDICTIONARY
360
5FE2
102
}
102
{ACAD_REACTORS
330
2D25
102
}
330
2D25
100
AcDbTableStyle
  3
Standard1
 70
     1
 71
     0
 40
0.06
 41
0.06
280
     1
281
     1
  7
Standard
140
0.18
170
     1
 62
     0
 63
     7
283
     0
274
    -2
284
     1
 64
     0
275
    -2
285
     1
 65
     0
276
    -2
286
     1
 66
     0
277
    -2
287
     1
 67
     0
278
    -2
288
     1
 68
     0
279
    -2
289
     1
 69
     0
  7
Standard
140
0.18
170
     1
 62
     0
 63
     7
283
     0
274
    -2
284
     1
 64
     0
275
    -2
285
     1
 65
     0
276
    -2
286
     1
 66
     0
277
    -2
287
     1
 67
     0
278
    -2
288
     1
 68
     0
279
    -2
289
     1
 69
     0
  7
Standard
140
0.18
170
     1
 62
     0
 63
     7
283
     0
274
    -2
284
     1
 64
     0
275
    -2
285
     1
 65
     0
276
    -2
286
     1
 66
     0
277
    -2
287
     1
 67
     0
278
    -2
288
     1
 68
     0
279
    -2
289
     1
 69
     0
  0
DICTIONARYVAR
  5
5EDF
102
{ACAD_REACTORS
330
D21
102
}
330
D21
100
DictionaryVariables
280
     0
  1
STANDARD
  0
DICTIONARYVAR
  5
1ED3
102
{ACAD_REACTORS
330
D21
102
}
330
D21
100
DictionaryVariables
280
     0
  1
1
  0
DICTIONARYVAR
  5
D22
102
{ACAD_REACTORS
330
D21
102
}
330
D21
100
DictionaryVariables
280
     0
  1
96
  0
DICTIONARY
  5
5FE2
330
5FE1
100
AcDbDictionary
280
     1
281
     1
  3
ACAD_ROUNDTRIP_2008_TABLESTYLE_CELLSTYLEMAP
360
5FE3
  3
ACAD_XREC_ROUNDTRIP
360
5FE4
  0
ACAD_PROXY_OBJECT
  5
5FE3
102
{ACAD_REACTORS
330
5FE2
102
}
330
5FE2
100
AcDbProxyObject
 90
      499
 91
      507
 95
  1310743
 70
     1
100
AcDbCellStyleMap
 90
        3
300
CELLSTYLE
  1
TABLEFORMAT_BEGIN
 90
        5
170
     1
 91
        0
 92
    32768
 62
   257
 93
        1
300
CONTENTFORMAT
  1
CONTENTFORMAT_BEGIN
 90
        0
 91
        0
 92
      512
 93
        0
300

 40
0.0
140
1.0
 94
        1
 62
     0
340
11
144
0.18
309
CONTENTFORMAT_END
171
     0
 94
        0
309
TABLEFORMAT_END
  1
CELLSTYLE_BEGIN
 90
        1
 91
        1
300
_TITLE
309
CELLSTYLE_END
300
CELLSTYLE
  1
TABLEFORMAT_BEGIN
 90
        5
170
     1
 91
        0
 92
        0
 62
   257
 93
        1
300
CONTENTFORMAT
  1
CONTENTFORMAT_BEGIN
 90
        0
 91
        0
 92
      512
 93
        0
300

 40
0.0
140
1.0
 94
        1
 62
     0
340
11
144
0.18
309
CONTENTFORMAT_END
171
     0
 94
        0
309
TABLEFORMAT_END
  1
CELLSTYLE_BEGIN
 90
        2
 91
        1
300
_HEADER
309
CELLSTYLE_END
300
CELLSTYLE
  1
TABLEFORMAT_BEGIN
 90
        5
170
     1
 91
        0
 92
        0
 62
   257
 93
        1
300
CONTENTFORMAT
  1
CONTENTFORMAT_BEGIN
 90
        0
 91
        0
 92
      512
 93
        0
300

 40
0.0
140
1.0
 94
        1
 62
     0
340
11
144
0.18
309
CONTENTFORMAT_END
171
     0
 94
        0
309
TABLEFORMAT_END
  1
CELLSTYLE_BEGIN
 90
        3
 91
        2
300
_DATA
309
CELLSTYLE_END
  0
XRECORD
  5
5FE4
102
{ACAD_REACTORS
330
5FE2
102
}
330
5FE2
100
AcDbXrecord
280
     1
102
ACAD_ROUNDTRIP_PRE2007_TABLESTYLE
 90
      512
 91
        0
  1

 92
      512
 93
        0
  2

 94
      512
 95
        0
  3

  0
ENDSEC
  0
EOF
